<?xml version="1.0" standalone="no"?>
<!DOCTYPE svg PUBLIC "-//W3C//DTD SVG 1.1//EN" "http://www.w3.org/Graphics/SVG/1.1/DTD/svg11.dtd" >
<svg xmlns="http://www.w3.org/2000/svg">
<metadata>
This is a custom SVG webfont generated by Font Squirrel.
Designer    : Christian Schwartz
Foundry URL : http://www.houseindustries.com
</metadata>
<defs>
<font id="webfontYUu2or1p" horiz-adv-x="419" >
<font-face units-per-em="1000" ascent="800" descent="-200" />
<missing-glyph horiz-adv-x="244" />
<glyph unicode=" "  horiz-adv-x="244" />
<glyph unicode="&#x09;" horiz-adv-x="244" />
<glyph unicode="&#xa0;" horiz-adv-x="244" />
<glyph unicode="0" horiz-adv-x="558" d="M279 -8q-100 0 -165 71.5t-65 184.5q0 112 65 183.5t165 71.5q99 0 164.5 -71.5t65.5 -183.5q0 -113 -65.5 -184.5t-164.5 -71.5zM279 27q86 0 137.5 62t51.5 159q0 96 -51.5 158t-137.5 62t-138.5 -62t-52.5 -158q0 -97 52.5 -159t138.5 -62z" />
<glyph unicode="1" horiz-adv-x="249" d="M128 0v460h-95v35h135v-495h-40z" />
<glyph unicode="2" d="M40 0v7l210 213q72 74 72 145q0 46 -26 74.5t-75 28.5q-46 0 -77 -27.5t-43 -76.5l-36 7q10 58 52 95t104 37q65 0 103 -38.5t38 -99.5q0 -82 -83 -167l-118 -120q-18 -18 -54 -47q37 4 65 4h197v-35h-329z" />
<glyph unicode="3" d="M200 -8q-59 0 -104 27.5t-68 69.5l32 18q47 -80 139 -80q64 0 100.5 38t36.5 96t-38 93.5t-103 35.5q-32 0 -58 -10l-3 4l126 142l40 39q-35 -5 -57 -5h-173v35h288v-7l-122 -137l-33 -31h3q74 0 121 -44q48 -45 48 -115q0 -73 -49 -121t-126 -48z" />
<glyph unicode="4" horiz-adv-x="444" d="M311 0v97h-279v23l312 380h7v-369h52v-34h-52v-97h-40zM79 127q36 4 57 4h175v214l5 77q-21 -35 -48 -68l-153 -187z" />
<glyph unicode="5" d="M199 -8q-55 0 -99.5 27t-66.5 68l32 19q50 -79 134 -79q66 0 101.5 37.5t35.5 99.5q0 60 -37 97.5t-99 37.5q-75 0 -120 -42l-4 2v237h264v-35h-228v-151q39 23 91 23q76 0 124 -48t48 -121q0 -76 -47 -124t-129 -48z" />
<glyph unicode="6" horiz-adv-x="444" d="M222 -8q-76 0 -124.5 47.5t-48.5 121.5q0 57 40 115l159 219h44l-96 -131l-55 -65q45 31 92 31q68 0 114.5 -48.5t46.5 -119.5q0 -72 -48.5 -121t-123.5 -49zM222 27q60 0 96.5 38t36.5 97q0 58 -36 96.5t-97 38.5q-60 0 -97 -39t-37 -96q0 -59 36.5 -97t97.5 -38z" />
<glyph unicode="7" horiz-adv-x="413" d="M91 0l231 461h-283v35h339v-4l-245 -492h-42z" />
<glyph unicode="8" horiz-adv-x="432" d="M216 -8q-76 0 -126 42.5t-50 107.5q0 54 31.5 89t85.5 48q-35 12 -56 39t-21 67q0 50 39 84t97 34t97 -34t39 -84q0 -78 -78 -106q54 -12 86 -47.5t32 -89.5q0 -65 -50 -107.5t-126 -42.5zM216 295q45 0 71 24t26 65q0 37 -26.5 61.5t-70.5 24.5t-70.5 -24.5t-26.5 -61.5 q0 -41 26 -65t71 -24zM216 27q61 0 98.5 32.5t37.5 83.5q0 54 -37 86t-99 32q-61 0 -98.5 -32t-37.5 -86q0 -52 37.5 -84t98.5 -32z" />
<glyph unicode="9" horiz-adv-x="439" d="M155 0l107 151q6 9 16 20t17 18l7 7q-41 -32 -94 -32q-69 0 -115.5 49t-46.5 121t49 120.5t125 48.5t124 -47.5t48 -120.5q0 -61 -40 -119l-153 -216h-44zM220 197q60 0 96.5 39.5t36.5 97.5q0 57 -36 96t-97 39t-98 -39t-37 -96q0 -59 36.5 -98t98.5 -39z" />
<glyph unicode="a" horiz-adv-x="500" d="M42 0l203 501h9l204 -501h-42l-36 90h-262l-36 -90h-40zM132 125h234l-97 245l-19 65q-12 -45 -20 -65z" />
<glyph unicode="b" horiz-adv-x="473" d="M84 0v495h167q67 0 100.5 -33.5t33.5 -87.5q0 -77 -63 -100q48 -11 76 -45.5t28 -84.5q0 -64 -39.5 -104t-115.5 -40h-187zM124 288h134q88 0 88 86t-99 86h-123v-172zM124 35h143q118 0 118 109q0 51 -29.5 80.5t-89.5 29.5h-142v-219z" />
<glyph unicode="c" horiz-adv-x="558" d="M302 -8q-103 0 -176 72.5t-73 183.5q0 110 73.5 182.5t178.5 72.5q127 0 196 -96l-29 -22q-61 83 -167 83q-91 0 -151 -63t-60 -157t59.5 -157.5t148.5 -63.5q114 0 178 87l30 -22q-70 -100 -208 -100z" />
<glyph unicode="d" horiz-adv-x="518" d="M84 0v495h113q124 0 196 -68t72 -179q0 -112 -72 -180t-196 -68h-113zM124 35h69q114 0 172.5 58t58.5 155t-58.5 154.5t-172.5 57.5h-69v-425z" />
<glyph unicode="e" horiz-adv-x="444" d="M84 0v495h294v-35h-254v-250h228v-35h-228v-140h264v-35h-304z" />
<glyph unicode="f" horiz-adv-x="430" d="M84 0v495h292v-35h-252v-250h230v-35h-230v-175h-40z" />
<glyph unicode="g" horiz-adv-x="566" d="M310 -8q-108 0 -182.5 73t-74.5 183q0 109 74 182t179 73q112 0 175 -68l-27 -26q-54 59 -148 59q-92 0 -152 -63t-60 -157q0 -95 61 -158t155 -63q98 0 158 52v113h-151v35h189v-164q-80 -71 -196 -71z" />
<glyph unicode="h" horiz-adv-x="526" d="M84 0v495h40v-285h278v285h40v-495h-40v175h-278v-175h-40z" />
<glyph unicode="i" horiz-adv-x="214" d="M87 0v495h40v-495h-40z" />
<glyph unicode="j" horiz-adv-x="373" d="M162 -8q-84 0 -124 75l32 20q34 -59 90 -59q89 0 89 98v369h40v-371q0 -63 -35.5 -97.5t-91.5 -34.5z" />
<glyph unicode="k" horiz-adv-x="468" d="M118 164q44 69 51 78l197 253h46l-184 -234l214 -261h-51l-189 231l-78 -94v-137h-40v495h40v-246q0 -34 -6 -85z" />
<glyph unicode="l" horiz-adv-x="402" d="M84 0v495h40v-460h237v-35h-277z" />
<glyph unicode="m" horiz-adv-x="636" d="M83 0v501h8l227 -295l226 295h8v-501h-39v337l5 82q-23 -44 -43 -70l-154 -198h-7l-152 198q-18 24 -45 70q5 -49 5 -82v-337h-39z" />
<glyph unicode="n" horiz-adv-x="548" d="M455 -6l-294 363l-44 66q5 -41 5 -74v-349h-38v501h9l292 -360l45 -66q-4 39 -4 71v350h38v-502h-9z" />
<glyph unicode="o" horiz-adv-x="619" d="M310 -8q-107 0 -182.5 72.5t-75.5 183.5t75.5 183t182.5 72q108 0 182.5 -72t74.5 -183t-75 -183.5t-182 -72.5zM310 27q94 0 155 63.5t61 157.5t-61 157t-155 63t-155.5 -63t-61.5 -157t61.5 -157.5t155.5 -63.5z" />
<glyph unicode="p" horiz-adv-x="463" d="M84 0v495h123q97 0 148 -51.5t51 -133.5t-51 -133.5t-148 -51.5h-83v-125h-40zM124 160h80q84 0 123 41t39 109q0 150 -162 150h-80v-300z" />
<glyph unicode="q" horiz-adv-x="619" d="M538 -41l-77 81q-69 -48 -151 -48q-107 0 -182.5 72.5t-75.5 183.5t75.5 183t182.5 72q108 0 182.5 -72t74.5 -183q0 -109 -78 -184l77 -80zM310 27q72 0 127 38l-82 86l28 25l83 -87q60 62 60 159q0 94 -61 157t-155 63t-155.5 -63t-61.5 -157t61.5 -157.5t155.5 -63.5z " />
<glyph unicode="r" horiz-adv-x="461" d="M299 151l110 -151h-46l-102 139q-25 -6 -56 -6h-81v-133h-40v495h121q96 0 147.5 -51t51.5 -130q0 -120 -105 -163zM124 168h78q84 0 123 40.5t39 105.5t-39 105.5t-123 40.5h-78v-292z" />
<glyph unicode="s" horiz-adv-x="410" d="M208 -8q-62 0 -106.5 29.5t-65.5 73.5l34 17q42 -85 137 -85q51 0 83 26t32 68q0 41 -23.5 67t-77.5 50l-49 22q-102 45 -102 129q0 52 36.5 83t90.5 31q85 0 133 -70l-30 -22q-39 58 -103 58q-41 0 -65 -20.5t-24 -58.5q0 -33 18 -54.5t62 -41.5l49 -22q63 -28 93.5 -63 t30.5 -88q0 -58 -43 -93.5t-110 -35.5z" />
<glyph unicode="t" horiz-adv-x="434" d="M197 0v460h-160v35h360v-35h-160v-460h-40z" />
<glyph unicode="u" horiz-adv-x="504" d="M252 -8q-77 0 -124.5 45.5t-47.5 129.5v328h40v-325q0 -72 35 -107.5t97 -35.5t97 35.5t35 107.5v325h40v-328q0 -84 -47.5 -129.5t-124.5 -45.5z" />
<glyph unicode="v" horiz-adv-x="500" d="M246 -6l-204 501h43l144 -360l23 -74q12 52 21 74l144 360h41l-202 -501h-10z" />
<glyph unicode="w" horiz-adv-x="718" d="M200 -6l-159 501h43l109 -349l14 -68q9 44 18 68l131 355h8l130 -355l18 -68q7 42 15 68l109 349h41l-158 -501h-9l-135 368l-15 55q-6 -32 -15 -55l-137 -368h-8z" />
<glyph unicode="x" horiz-adv-x="484" d="M47 0l171 269l-144 226h45l99 -155l24 -49q10 27 24 49l97 155h45l-144 -226l173 -269h-45l-126 198l-26 48q-12 -30 -23 -48l-125 -198h-45z" />
<glyph unicode="y" horiz-adv-x="497" d="M230 0v152l-188 343h44l137 -251l27 -64q15 39 28 64l135 251h43l-186 -341v-154h-40z" />
<glyph unicode="z" horiz-adv-x="450" d="M45 0v7l292 453h-258v35h319v-8l-293 -452h292v-35h-352z" />
<glyph unicode="&#xb7;" horiz-adv-x="180" d="M90 197q-15 0 -27.5 12t-12.5 28q0 17 12 28.5t28 11.5t28 -11.5t12 -28.5q0 -16 -12 -28t-28 -12z" />
<glyph unicode="&#x2219;" horiz-adv-x="180" d="M90 197q-15 0 -27.5 12t-12.5 28q0 17 12 28.5t28 11.5t28 -11.5t12 -28.5q0 -16 -12 -28t-28 -12z" />
<glyph unicode="&#x2000;" horiz-adv-x="333" />
<glyph unicode="&#x2001;" horiz-adv-x="666" />
<glyph unicode="&#x2002;" horiz-adv-x="333" />
<glyph unicode="&#x2003;" horiz-adv-x="666" />
<glyph unicode="&#x2004;" horiz-adv-x="222" />
<glyph unicode="&#x2005;" horiz-adv-x="166" />
<glyph unicode="&#x2006;" horiz-adv-x="111" />
<glyph unicode="&#x2007;" horiz-adv-x="111" />
<glyph unicode="&#x2008;" horiz-adv-x="83" />
<glyph unicode="&#x2009;" horiz-adv-x="133" />
<glyph unicode="&#x200a;" horiz-adv-x="37" />
<glyph unicode="&#x202f;" horiz-adv-x="133" />
<glyph unicode="&#x205f;" horiz-adv-x="166" />
</font>
</defs>
</svg>
