<?xml version="1.0" standalone="no"?>
<!DOCTYPE svg PUBLIC "-//W3C//DTD SVG 1.1//EN" "http://www.w3.org/Graphics/SVG/1.1/DTD/svg11.dtd" >
<svg xmlns="http://www.w3.org/2000/svg">
<metadata>
This is a custom SVG webfont generated by Font Squirrel.
Designer    : Christian Schwartz
Foundry URL : httpwwwhouseindustriescom
</metadata>
<defs>
<font id="webfontCI6FV1dj" horiz-adv-x="551" >
<font-face units-per-em="1000" ascent="800" descent="-200" />
<missing-glyph horiz-adv-x="244" />
<glyph unicode=" "  horiz-adv-x="244" />
<glyph unicode="&#x09;" horiz-adv-x="244" />
<glyph unicode="&#xa0;" horiz-adv-x="244" />
<glyph unicode="(" horiz-adv-x="261" d="M206 -136q-165 175 -165 427t165 427l26 -23q-150 -171 -150 -404t150 -404z" />
<glyph unicode=")" horiz-adv-x="261" d="M55 -136l-26 23q149 170 149 404t-149 404l26 23q165 -177 165 -427t-165 -427z" />
<glyph unicode="," horiz-adv-x="180" d="M40 -111l39 107q-29 7 -29 37q0 16 12.5 28t27.5 12q16 0 28 -12t12 -28q0 -11 -4 -19l-61 -125h-25z" />
<glyph unicode="-" horiz-adv-x="278" d="M51 208v36h175v-36h-175z" />
<glyph unicode="." horiz-adv-x="180" d="M90 -7q-15 0 -27.5 12t-12.5 28q0 17 12 28.5t28 11.5t28 -11.5t12 -28.5q0 -16 -12 -28t-28 -12z" />
<glyph unicode="/" horiz-adv-x="440" d="M29 -128l311 850h41l-311 -850h-41z" />
<glyph unicode="0" horiz-adv-x="605" d="M302 -8q-106 0 -182 74t-76 182q0 109 75.5 182t182.5 73t183 -73t76 -182q0 -108 -76 -182t-183 -74zM302 28q92 0 155 63.5t63 156.5q0 94 -63 156.5t-155 62.5t-154.5 -62t-62.5 -157q0 -94 62.5 -157t154.5 -63z" />
<glyph unicode="1" horiz-adv-x="262" d="M140 0v460h-117v35h157v-495h-40z" />
<glyph unicode="2" horiz-adv-x="466" d="M33 0v7l205 174q59 50 88 91t29 85q0 54 -31.5 82t-83.5 28q-105 0 -142 -113l-35 10q17 65 64.5 102t112.5 37q69 0 112 -38.5t43 -107.5q0 -51 -33 -98t-97 -101l-112 -94q-19 -16 -45 -31q30 3 49 3h254v-36h-378z" />
<glyph unicode="3" horiz-adv-x="479" d="M232 -103q-70 0 -125.5 33t-81.5 92l34 17q53 -106 173 -106q69 0 116 43.5t47 120.5q0 75 -43 115.5t-121 40.5q-39 0 -79 -17l-6 8l174 190l28 29q-23 -3 -42 -3h-231v35h342v-4l-163 -179q-5 -6 -13 -12.5t-13 -9.5l-6 -4q10 1 19 1q82 0 135 -47q60 -53 60 -143 q0 -92 -59.5 -146t-144.5 -54z" />
<glyph unicode="4" horiz-adv-x="506" d="M396 68h77v-37h-77v-125h-40v125h-337v7l369 469h8v-439zM356 68v301l3 48q-16 -25 -29 -42l-215 -273q-13 -17 -34 -37q27 3 46 3h229z" />
<glyph unicode="5" horiz-adv-x="475" d="M227 -103q-65 0 -114 26.5t-75 71.5l31 20q51 -82 158 -82q74 0 119.5 45.5t45.5 120.5q0 76 -42 119.5t-121 43.5q-80 0 -143 -55l-7 2v286h322v-35h-286v-194q51 32 117 32q89 0 145 -55.5t56 -143.5q0 -89 -59 -145.5t-147 -56.5z" />
<glyph unicode="6" horiz-adv-x="497" d="M249 -8q-88 0 -146 55.5t-58 142.5q0 59 57 147l181 273h44l-144 -218l-40 -49q50 46 111 46q86 0 142 -56.5t56 -142.5q0 -84 -57.5 -141t-145.5 -57zM248 28q71 0 117.5 45.5t46.5 116.5q0 75 -43.5 119t-119.5 44q-73 0 -118.5 -47.5t-45.5 -115.5q0 -72 44.5 -117 t118.5 -45z" />
<glyph unicode="7" horiz-adv-x="434" d="M84 -94l267 554h-316v35h370v-7l-280 -582h-41z" />
<glyph unicode="8" horiz-adv-x="511" d="M255 -8q-95 0 -154 51t-59 132q0 62 39 106.5t104 60.5q-43 15 -68.5 48.5t-25.5 80.5q0 64 47.5 105.5t116.5 41.5q70 0 118 -41.5t48 -105.5q0 -47 -26 -80t-69 -49q65 -16 104 -60.5t39 -106.5q0 -81 -58.5 -132t-155.5 -51zM255 359q57 0 91.5 31t34.5 81 q0 49 -35.5 80.5t-90.5 31.5q-56 0 -90.5 -31.5t-34.5 -80.5q0 -51 34 -81.5t91 -30.5zM255 29q78 0 125.5 40t47.5 106q0 67 -48 107.5t-125 40.5t-124.5 -40.5t-47.5 -107.5t47 -106.5t125 -39.5z" />
<glyph unicode="9" horiz-adv-x="505" d="M198 -94l130 198q6 9 15 20l15 18l7 6q-21 -21 -53.5 -34t-63.5 -13q-88 0 -145.5 57t-57.5 144q0 84 59.5 142.5t148.5 58.5t148 -57t59 -144q0 -59 -58 -150l-160 -246h-44zM252 136q74 0 121 48t47 118q0 72 -46.5 118.5t-120.5 46.5t-121 -46t-47 -119 q0 -76 45.5 -121t121.5 -45z" />
<glyph unicode=":" horiz-adv-x="190" d="M95 214q-15 0 -27.5 12t-12.5 28q0 17 12.5 29t27.5 12q16 0 28 -12t12 -29q0 -16 -12 -28t-28 -12zM95 -7q-15 0 -27.5 12t-12.5 28q0 17 12.5 29t27.5 12q16 0 28 -12t12 -29q0 -16 -12 -28t-28 -12z" />
<glyph unicode="A" horiz-adv-x="651" d="M44 0l275 688h12l276 -688h-42l-52 132h-376l-52 -132h-41zM151 168h347l-153 388q-10 24 -20 62q-10 -38 -20 -62z" />
<glyph unicode="B" horiz-adv-x="608" d="M103 0v680h216q91 0 136.5 -45t45.5 -118q0 -111 -84 -140q64 -15 102.5 -64t38.5 -118q0 -87 -52.5 -141t-156.5 -54h-246zM144 390h189q127 0 127 127t-145 127h-171v-254zM144 36h200q90 0 131.5 43t41.5 116q0 72 -43 115.5t-131 43.5h-199v-318z" />
<glyph unicode="C" horiz-adv-x="731" d="M405 -8q-147 0 -247.5 97.5t-100.5 250.5t100.5 250.5t247.5 97.5q181 0 270 -129l-31 -23q-81 115 -239 115q-131 0 -218.5 -89t-87.5 -222t87.5 -222t218.5 -89q162 0 247 121l31 -22q-45 -65 -117.5 -100.5t-160.5 -35.5z" />
<glyph unicode="D" horiz-adv-x="677" d="M103 0v680h145q175 0 273.5 -91t98.5 -249t-98 -249t-274 -91h-145zM144 37h99q164 0 249 82.5t85 220.5t-85 220.5t-249 82.5h-99v-606z" />
<glyph unicode="E" horiz-adv-x="573" d="M103 0v680h397v-36h-356v-364h319v-36h-319v-208h370v-36h-411z" />
<glyph unicode="F" horiz-adv-x="556" d="M103 0v680h396v-36h-355v-364h322v-37h-322v-243h-41z" />
<glyph unicode="G" horiz-adv-x="745" d="M407 -8q-148 0 -249 97.5t-101 250.5t101.5 250.5t249.5 97.5q151 0 232 -85l-27 -28q-73 76 -205 76q-133 0 -221 -88.5t-88 -222.5q0 -133 88 -222t220 -89q146 0 232 80v158h-219v36h259v-210q-99 -101 -272 -101z" />
<glyph unicode="H" horiz-adv-x="684" d="M103 0v680h41v-400h396v400h41v-680h-41v243h-396v-243h-41z" />
<glyph unicode="I" horiz-adv-x="255" d="M107 0v680h41v-680h-41z" />
<glyph unicode="J" horiz-adv-x="476" d="M202 -8q-107 0 -160 90l33 22q44 -75 126 -75q59 0 94 36t35 105v510h41v-512q0 -84 -47 -130t-122 -46z" />
<glyph unicode="K" horiz-adv-x="587" d="M140 240q34 59 41 68l294 372h46l-264 -338l290 -342h-51l-265 313l-87 -107v-1v-1v-1v-1v-1v-1v-1v-1v-1v-1v-1v-1v-1v-1v-1v-1v-1v-1v-1v-1v-1v-1v-1v-1v-1v-1v-1v-1v-1v-1v-1v-1v-1v-1v-1v-1v-1v-1v-1v-1v-1v-1v-2v-1v-1v-1v-1v-1v-1v-2v-1v-1v-1v-1v-2v-1v-1v-1v-2 v-1v-1v-2v-1v-1v-1v-2v-1v-1v-2v-1v-2v-1v-1v-2v-1v-1v-2v-1v-2v-1v-2v-1v-1v-2v-1v-2v-1v-2v-1v-2v-1v-2v-1v-2v-2v-1v-2v-1v-2v-1v-2v-2v-1v-2v-1v-2v-2v-1v-2v-1v-2v-2v-1v-2v-2v-1v-2v-2v-2v-1v-2v-2v-1v-2v-2v-2v-1v-2v-2v-2v-1v-2v-2v-2v-2v-1v-2v-2v-2v-2v-1v-2v-2 v-2v-9h-41v680h41v-363q0 -17 -4 -77z" />
<glyph unicode="L" horiz-adv-x="512" d="M103 0v680h41v-644h327v-36h-368z" />
<glyph unicode="M" horiz-adv-x="840" d="M103 0v688h10l307 -404l307 404h10v-688h-39v540l2 59q-19 -33 -37 -56l-239 -314h-11l-236 314l-37 56q2 -35 2 -59v-540h-39z" />
<glyph unicode="N" horiz-adv-x="719" d="M604 -8l-435 564l-31 45q3 -31 3 -51v-550h-38v688h12l435 -564l31 -45q-3 31 -3 51v550h38v-688h-12z" />
<glyph unicode="O" horiz-adv-x="810" d="M405 -8q-147 0 -247.5 97.5t-100.5 250.5t100.5 250.5t247.5 97.5t247.5 -97.5t100.5 -250.5t-100.5 -250.5t-247.5 -97.5zM405 29q131 0 218.5 89t87.5 222t-87.5 222t-218.5 89t-218.5 -89t-87.5 -222t87.5 -222t218.5 -89z" />
<glyph unicode="P" horiz-adv-x="576" d="M103 0v680h139q133 0 201 -68.5t68 -184.5q0 -113 -68 -182.5t-201 -69.5h-98v-175h-41zM144 211h94q121 0 176 59t55 157q0 99 -55 158t-176 59h-94v-433z" />
<glyph unicode="Q" horiz-adv-x="810" d="M649 86l106 -111l-29 -26l-107 112q-93 -69 -214 -69q-147 0 -247.5 97.5t-100.5 250.5t100.5 250.5t247.5 97.5t247.5 -97.5t100.5 -250.5q0 -155 -104 -254zM592 90l-112 117l29 26l112 -118q90 90 90 225q0 133 -87.5 222t-218.5 89t-218.5 -89t-87.5 -222t87.5 -222 t218.5 -89q107 0 187 61z" />
<glyph unicode="R" horiz-adv-x="588" d="M365 207l151 -207h-49l-142 194q-37 -9 -85 -9h-96v-185h-41v680h137q132 0 201.5 -69.5t69.5 -178.5q0 -78 -37 -137.5t-109 -87.5zM144 221h92q121 0 177 59t56 152t-56 152.5t-177 59.5h-92v-423z" />
<glyph unicode="S" horiz-adv-x="527" d="M265 -8q-162 0 -228 136l35 17q62 -117 192 -117q69 0 115.5 37.5t46.5 100.5q0 57 -32.5 94.5t-106.5 71.5l-63 29q-75 35 -108.5 74t-33.5 101q0 69 48 110.5t119 41.5q113 0 174 -98l-32 -21q-52 83 -142 83q-59 0 -93 -31.5t-34 -83.5q0 -50 26.5 -80t91.5 -60 l63 -29q84 -38 123.5 -85.5t39.5 -116.5q0 -79 -56 -126.5t-145 -47.5z" />
<glyph unicode="T" horiz-adv-x="539" d="M249 0v644h-216v36h473v-36h-216v-644h-41z" />
<glyph unicode="U" horiz-adv-x="651" d="M325 -8q-102 0 -165.5 61.5t-63.5 172.5v454h41v-451q0 -96 51 -148.5t137 -52.5t137.5 52.5t51.5 148.5v451h41v-454q0 -111 -64.5 -172.5t-165.5 -61.5z" />
<glyph unicode="V" horiz-adv-x="651" d="M320 -8l-276 688h44l220 -555l19 -62q10 40 19 62l220 555h41l-275 -688h-12z" />
<glyph unicode="W" horiz-adv-x="950" d="M254 -8l-213 688h44l166 -547l11 -50q6 31 13 50l195 555h12l195 -555l12 -50q6 31 12 50l166 547h42l-213 -688h-11l-198 564q-7 21 -11 51q-5 -30 -12 -51l-199 -564h-11z" />
<glyph unicode="X" horiz-adv-x="623" d="M51 0l238 368l-201 312h47l166 -257l11 -25q8 17 13 25l166 257h44l-201 -311l239 -369h-47l-203 315l-12 25q-7 -17 -12 -25l-204 -315h-44z" />
<glyph unicode="Y" horiz-adv-x="643" d="M301 0v212l-257 468h46l217 -394l16 -41q9 25 18 41l216 394h43l-257 -469v-211h-42z" />
<glyph unicode="Z" horiz-adv-x="580" d="M45 0v10l413 634h-360v36h421v-10l-412 -634h423v-36h-485z" />
<glyph unicode="a" horiz-adv-x="463" d="M344 236v20q0 127 -109 127q-87 0 -133 -70l-28 20q54 84 162 84q66 0 106.5 -40t40.5 -117v-260h-39l2 63q-47 -71 -141 -71q-71 0 -112.5 32.5t-41.5 92.5q0 58 43 88.5t106 30.5h144zM344 204h-139q-51 0 -83 -21t-32 -65q0 -91 119 -91q54 0 94.5 29t40.5 74v74z" />
<glyph unicode="b" d="M297 -8q-58 0 -105.5 30.5t-69.5 79.5l2 -102h-39v722h39v-411q24 48 68.5 77t104.5 29q87 0 144.5 -61t57.5 -151q0 -91 -57.5 -152t-144.5 -61zM292 27q75 0 120.5 50.5t45.5 127.5t-45.5 127t-120.5 50q-76 0 -123.5 -50t-47.5 -127t47.5 -127.5t123.5 -50.5z" />
<glyph unicode="c" horiz-adv-x="464" d="M259 -8q-87 0 -147 62t-60 150t60 150.5t147 62.5q99 0 155 -69l-28 -23q-46 57 -127 57q-74 0 -120 -50.5t-46 -127.5q0 -76 46 -126.5t120 -50.5q87 0 135 61l28 -23q-59 -73 -163 -73z" />
<glyph unicode="d" d="M254 -8q-87 0 -144.5 61t-57.5 152q0 90 57.5 151t144.5 61q60 0 104.5 -29t68.5 -77v411h39v-722h-39l2 102q-22 -49 -69.5 -79.5t-105.5 -30.5zM259 27q76 0 123.5 50.5t47.5 127.5t-47.5 127t-123.5 50q-75 0 -120.5 -50t-45.5 -127t45.5 -127.5t120.5 -50.5z" />
<glyph unicode="e" horiz-adv-x="506" d="M92 196q2 -75 48.5 -122t124.5 -47q91 0 143 64l26 -23q-61 -76 -169 -76q-95 0 -154 61t-59 151q0 88 59.5 150.5t145.5 62.5q91 0 147 -63q53 -61 53 -151v-7h-365zM93 228h324q-5 67 -46 111t-114 44q-68 0 -112 -43.5t-52 -111.5z" />
<glyph unicode="f" horiz-adv-x="285" d="M101 0v375h-65v33h65v210q0 59 26.5 88t68.5 29q61 0 90 -50l-30 -20q-23 35 -59 35q-57 0 -57 -83v-209h109v-33h-109v-375h-39z" />
<glyph unicode="g" horiz-adv-x="462" d="M286 408h145v-33h-92q44 -39 44 -100q0 -62 -43 -102.5t-110 -40.5q-47 0 -81 19q-23 -4 -35.5 -17t-12.5 -32q0 -44 59 -49l106 -10q89 -8 130 -37.5t41 -86.5q0 -66 -59.5 -104t-153.5 -38q-93 0 -148.5 35.5t-55.5 98.5q0 83 106 114q-60 17 -60 73q0 25 15.5 44.5 t40.5 27.5q-48 40 -48 105q0 62 44 102t112 40q30 0 56 -9zM230 165q53 0 84 30t31 80t-31 79.5t-84 29.5q-54 0 -85.5 -29.5t-31.5 -79.5t31.5 -80t85.5 -30zM175 14q-115 -23 -115 -102q0 -49 42 -75t122 -26q77 0 125.5 28t48.5 80q0 43 -29.5 63t-107.5 26z" />
<glyph unicode="h" horiz-adv-x="509" d="M84 0v722h39v-401q21 44 61.5 70t93.5 26q69 0 110.5 -43.5t41.5 -118.5v-255h-39v248q0 64 -30 98.5t-88 34.5q-67 0 -108.5 -41.5t-41.5 -111.5v-228h-39z" />
<glyph unicode="i" horiz-adv-x="208" d="M104 551q-13 0 -23 9.5t-10 23.5t10 23.5t23 9.5t23 -9.5t10 -23.5t-10 -23.5t-23 -9.5zM85 0v408h39v-408h-39z" />
<glyph unicode="j" horiz-adv-x="208" d="M104 551q-13 0 -23 9.5t-10 23.5t10 23.5t23 9.5t23 -9.5t10 -23.5t-10 -23.5t-23 -9.5zM33 -222q-53 0 -83 36l24 25q25 -27 57 -27q54 0 54 77v519h39v-520q0 -54 -25.5 -82t-65.5 -28z" />
<glyph unicode="k" horiz-adv-x="449" d="M123 127v-127h-39v722h39v-508q0 -14 -3 -44l226 238h46l-164 -173l193 -235h-48l-172 209z" />
<glyph unicode="l" horiz-adv-x="219" d="M90 0v722h39v-722h-39z" />
<glyph unicode="m" horiz-adv-x="742" d="M84 0v408h39l-1 -83q19 43 54 67.5t80 24.5q50 0 83 -25.5t44 -67.5q22 45 60 69t83 24q62 0 99 -38.5t37 -105.5v-273h-39v266q0 115 -101 115q-56 0 -92.5 -39.5t-36.5 -107.5v-234h-39v266q0 115 -102 115q-56 0 -92.5 -39.5t-36.5 -107.5v-234h-39z" />
<glyph unicode="n" horiz-adv-x="509" d="M84 0v408h39l-1 -91q20 47 61 73.5t95 26.5q69 0 110.5 -43.5t41.5 -118.5v-255h-39v248q0 64 -30 98.5t-88 34.5q-67 0 -108.5 -41.5t-41.5 -111.5v-228h-39z" />
<glyph unicode="o" horiz-adv-x="528" d="M265 -8q-89 0 -151 62.5t-62 150.5t62 150t151 62t150 -62t61 -150t-61 -150.5t-150 -62.5zM265 27q76 0 123.5 50.5t47.5 127.5t-47.5 127t-123.5 50t-124.5 -50.5t-48.5 -126.5t48.5 -127t124.5 -51z" />
<glyph unicode="p" d="M85 -212v620h39l-2 -100q23 49 69 79t106 30q87 0 144.5 -61t57.5 -151q0 -91 -57.5 -152t-144.5 -61q-57 0 -103.5 30t-69.5 77v-311h-39zM292 27q75 0 120.5 50.5t45.5 127.5t-45.5 127t-120.5 50q-76 0 -123.5 -50t-47.5 -127t47.5 -127.5t123.5 -50.5z" />
<glyph unicode="q" d="M427 -212v311q-23 -47 -69.5 -77t-103.5 -30q-87 0 -144.5 61t-57.5 152q0 90 57.5 151t144.5 61q60 0 105.5 -30t69.5 -79l-2 100h39v-620h-39zM259 27q76 0 123.5 50.5t47.5 127.5t-47.5 127t-123.5 50q-75 0 -120.5 -50t-45.5 -127t45.5 -127.5t120.5 -50.5z" />
<glyph unicode="r" horiz-adv-x="340" d="M84 0v408h39l-1 -82q35 90 119 90q46 0 74 -21l-19 -32q-23 17 -60 17q-47 0 -80 -39t-33 -109v-232h-39z" />
<glyph unicode="s" horiz-adv-x="405" d="M211 -8q-61 0 -103 28.5t-61 73.5l34 15q38 -82 130 -82q46 0 74 21.5t28 56.5q0 39 -24.5 56t-88.5 37q-62 18 -94 42.5t-32 74.5q0 44 35 73t87 29q87 0 130 -77l-30 -18q-35 61 -100 61q-39 0 -62 -18.5t-23 -47.5q0 -34 21.5 -50.5t83.5 -35.5q66 -20 101 -46.5 t35 -78.5q0 -50 -37.5 -82t-103.5 -32z" />
<glyph unicode="t" horiz-adv-x="313" d="M194 -8q-42 0 -68 28.5t-26 87.5v267h-64v33h64v213h39v-213h118v-33h-118v-266q0 -82 55 -82q37 0 65 30l25 -24q-36 -41 -90 -41z" />
<glyph unicode="u" horiz-adv-x="509" d="M232 -9q-69 0 -110.5 43t-41.5 117v257h39v-251q0 -130 117 -130q67 0 108.5 41.5t41.5 111.5v228h39v-408h-39l1 90q-21 -46 -61.5 -72.5t-93.5 -26.5z" />
<glyph unicode="v" horiz-adv-x="448" d="M220 -8l-188 416h42l135 -306l18 -52q8 32 17 52l132 306h40l-184 -416h-12z" />
<glyph unicode="w" horiz-adv-x="680" d="M190 -8l-158 416h42l108 -294l15 -50q7 29 16 50l122 298h9l124 -297l17 -50q6 29 14 50l108 293h40l-158 -416h-10l-124 304l-15 47q-6 -28 -14 -47l-126 -304h-10z" />
<glyph unicode="x" horiz-adv-x="450" d="M38 0l164 218l-141 190h47l98 -133l20 -33q8 20 18 33l100 133h43l-140 -187l165 -221h-47l-121 165l-20 33q-11 -21 -20 -33l-123 -165h-43z" />
<glyph unicode="y" horiz-adv-x="449" d="M110 -212l103 242l-181 378h42l143 -302l16 -48q6 28 15 48l129 302h40l-267 -620h-40z" />
<glyph unicode="z" horiz-adv-x="406" d="M36 0v10l274 364h-246v34h306v-11l-274 -363h274v-34h-334z" />
<glyph unicode="&#xad;" horiz-adv-x="278" d="M51 208v36h175v-36h-175z" />
<glyph unicode="&#x2000;" horiz-adv-x="367" />
<glyph unicode="&#x2001;" horiz-adv-x="735" />
<glyph unicode="&#x2002;" horiz-adv-x="367" />
<glyph unicode="&#x2003;" horiz-adv-x="735" />
<glyph unicode="&#x2004;" horiz-adv-x="245" />
<glyph unicode="&#x2005;" horiz-adv-x="183" />
<glyph unicode="&#x2006;" horiz-adv-x="122" />
<glyph unicode="&#x2007;" horiz-adv-x="122" />
<glyph unicode="&#x2008;" horiz-adv-x="91" />
<glyph unicode="&#x2009;" horiz-adv-x="100" />
<glyph unicode="&#x200a;" horiz-adv-x="40" />
<glyph unicode="&#x2010;" horiz-adv-x="400" d="M100 250v100h200v-100h-200z" />
<glyph unicode="&#x2011;" horiz-adv-x="400" d="M100 250v100h200v-100h-200z" />
<glyph unicode="&#x2014;" horiz-adv-x="607" d="M38 161v34h531v-34h-531z" />
<glyph unicode="&#x202f;" horiz-adv-x="147" />
<glyph unicode="&#x205f;" horiz-adv-x="183" />
</font>
</defs>
</svg>
