<?xml version="1.0" standalone="no"?>
<!DOCTYPE svg PUBLIC "-//W3C//DTD SVG 1.1//EN" "http://www.w3.org/Graphics/SVG/1.1/DTD/svg11.dtd" >
<svg xmlns="http://www.w3.org/2000/svg">
<metadata>
This is a custom SVG webfont generated by Font Squirrel.
Designer    : Christian Schwartz
Foundry URL : http://www.houseindustries.com
</metadata>
<defs>
<font id="webfontIreKTfx7" horiz-adv-x="480" >
<font-face units-per-em="1000" ascent="800" descent="-200" />
<missing-glyph horiz-adv-x="211" />
<glyph unicode=" "  horiz-adv-x="211" />
<glyph unicode="&#x09;" horiz-adv-x="211" />
<glyph unicode="&#xa0;" horiz-adv-x="211" />
<glyph unicode="0" horiz-adv-x="585" d="M292 -9q-104 0 -177 74.5t-73 190.5q0 117 73 191t177 74q105 0 178 -74t73 -191q0 -115 -73.5 -190t-177.5 -75zM292 82q65 0 105 47t40 127t-40 127.5t-105 47.5t-105 -47.5t-40 -127.5t40 -127t105 -47z" />
<glyph unicode="1" horiz-adv-x="308" d="M136 0v424h-101v89h204v-513h-103z" />
<glyph unicode="2" horiz-adv-x="454" d="M22 0v10l212 217q71 74 71 130q0 33 -19 52.5t-55 19.5q-69 0 -98 -85l-92 24q17 71 68 112t125 41q80 0 127.5 -44.5t47.5 -115.5q0 -81 -87 -173l-61 -64q-8 -8 -21 -18l-20 -16l-9 -6q35 4 61 4h140v-88h-390z" />
<glyph unicode="3" horiz-adv-x="463" d="M224 -9q-72 0 -125.5 33t-77.5 87l86 41q35 -70 114 -70q45 0 71.5 26.5t26.5 66.5q0 41 -28.5 67t-78.5 26q-40 0 -70 -13l-5 8l88 119l45 48q-46 -6 -71 -6h-134v89h350v-10l-94 -128q-9 -12 -18.5 -22t-14.5 -13l-6 -4q63 -10 102.5 -54.5t39.5 -112.5 q0 -82 -57.5 -130t-142.5 -48z" />
<glyph unicode="4" horiz-adv-x="500" d="M294 0v76h-261v76l352 366h10v-360h66v-82h-66v-76h-101zM134 151q35 4 62 4h100v99l4 81q-22 -36 -49 -66l-71 -78q-8 -9 -20 -19l-18 -16z" />
<glyph unicode="5" horiz-adv-x="456" d="M221 -9q-70 0 -122 32.5t-76 78.5l84 47q40 -67 109 -67q45 0 71.5 25t26.5 65q0 43 -29 68t-82 25q-70 0 -127 -39l-7 3v284h306v-88h-219v-93q28 14 69 14q88 0 140 -49t52 -127q0 -80 -53.5 -129.5t-142.5 -49.5z" />
<glyph unicode="6" d="M241 -9q-87 0 -143 53t-56 132q0 63 50 136l139 201h115l-82 -116q-9 -12 -23 -27.5t-23 -24.5l-10 -9q28 14 56 14q75 0 125.5 -49t50.5 -125q0 -78 -56 -131.5t-143 -53.5zM240 81q46 0 71 27.5t25 68.5t-24.5 68.5t-71.5 27.5q-44 0 -70.5 -27.5t-26.5 -68.5 q0 -40 26.5 -68t70.5 -28z" />
<glyph unicode="7" horiz-adv-x="461" d="M79 0l208 424h-249v89h396v-9l-245 -504h-110z" />
<glyph unicode="8" horiz-adv-x="473" d="M236 -9q-88 0 -144.5 46.5t-56.5 115.5q0 54 31 90.5t82 52.5q-71 31 -71 101q0 54 47 89t112 35q66 0 112 -35t46 -89q0 -70 -70 -101q51 -16 82.5 -52.5t31.5 -90.5q0 -69 -57 -115.5t-145 -46.5zM236 327q28 0 46.5 15.5t18.5 41.5q0 25 -18.5 40t-46.5 15t-46 -15 t-18 -40q0 -26 18 -41.5t46 -15.5zM236 80q43 0 70 24t27 61q0 38 -27 62.5t-70 24.5t-70 -24.5t-27 -62.5q0 -37 27 -61t70 -24z" />
<glyph unicode="9" horiz-adv-x="481" d="M128 0l92 122q20 28 51 55q-23 -15 -54 -15q-75 0 -126.5 49.5t-51.5 125.5q0 77 56.5 130.5t144.5 53.5q87 0 143 -53t56 -131q0 -70 -53 -142l-144 -195h-114zM241 239q44 0 70 28t26 69q0 39 -26 67.5t-70 28.5q-46 0 -72 -28t-26 -68q0 -42 25.5 -69.5t72.5 -27.5z " />
<glyph unicode="a" horiz-adv-x="526" d="M151 58l-24 -58h-100l230 519h11l231 -519h-106l-24 58h-218zM337 135l-47 114q-17 42 -29 91q-12 -49 -30 -91l-48 -114h154z" />
<glyph unicode="b" horiz-adv-x="499" d="M66 0v513h200q71 0 111 -36.5t40 -90.5q0 -79 -66 -102q50 -12 78 -47.5t28 -87.5q0 -68 -46 -108.5t-128 -40.5h-217zM165 318h96q27 0 42 14.5t15 40.5q0 25 -16 40t-45 15h-92v-110zM165 85h110q40 0 60 20.5t20 55.5q0 34 -20.5 54.5t-59.5 20.5h-110v-151z" />
<glyph unicode="c" horiz-adv-x="577" d="M311 -9q-117 0 -191 75t-74 190t74.5 190t189.5 75q142 0 213 -108l-80 -54q-48 72 -133 72q-71 0 -115.5 -49.5t-44.5 -125.5q0 -75 44.5 -124.5t116.5 -49.5q91 0 145 79l82 -53q-73 -117 -227 -117z" />
<glyph unicode="d" horiz-adv-x="544" d="M66 0v513h162q120 0 195 -70.5t75 -186.5q0 -115 -75 -185.5t-195 -70.5h-162zM168 89h54q86 0 128.5 44.5t42.5 122.5t-42.5 123t-128.5 45h-54v-335z" />
<glyph unicode="e" horiz-adv-x="468" d="M66 0v513h344v-89h-242v-157h207v-86h-207v-92h252v-89h-354z" />
<glyph unicode="f" horiz-adv-x="449" d="M66 0v513h338v-90h-236v-168h213v-90h-213v-165h-102z" />
<glyph unicode="g" horiz-adv-x="577" d="M323 -9q-124 0 -200.5 74.5t-76.5 190.5t77 190.5t190 74.5q121 0 191 -74l-66 -68q-45 52 -125 52q-73 0 -118 -50t-45 -125q0 -78 44.5 -128t128.5 -50q63 0 108 28v78h-122v83h215v-217q-77 -59 -201 -59z" />
<glyph unicode="h" horiz-adv-x="559" d="M66 0v513h102v-258h223v258h102v-513h-102v164h-223v-164h-102z" />
<glyph unicode="i" horiz-adv-x="239" d="M68 0v513h103v-513h-103z" />
<glyph unicode="j" horiz-adv-x="406" d="M181 -9q-113 0 -159 99l82 47q16 -29 32 -42.5t42 -13.5q62 0 62 72v360h102v-364q0 -79 -44 -118.5t-117 -39.5z" />
<glyph unicode="k" horiz-adv-x="524" d="M159 225q44 79 63 105l139 183h115l-180 -233l206 -280h-123l-153 208l-58 -68v-140h-102v513h102v-175q0 -35 -9 -113z" />
<glyph unicode="l" horiz-adv-x="441" d="M66 0v513h102v-424h233v-89h-335z" />
<glyph unicode="m" horiz-adv-x="649" d="M65 0v519h10l251 -283l247 283h10v-519h-99v217l6 95q-29 -47 -59 -82l-102 -119h-9l-103 119q-13 15 -28 35.5t-23 33.5l-8 13q6 -55 6 -95v-217h-99z" />
<glyph unicode="n" horiz-adv-x="553" d="M477 -7l-262 255q-14 13 -30 31.5t-25 30.5l-9 12q8 -55 8 -97v-225h-93v519h10l260 -253q16 -16 32 -34.5t24 -29.5l8 -10q-6 52 -6 97v224h93v-520h-10z" />
<glyph unicode="o" horiz-adv-x="638" d="M319 -9q-113 0 -193 75.5t-80 189.5q0 115 80 190t193 75q114 0 193.5 -74.5t79.5 -190.5q0 -114 -79.5 -189.5t-193.5 -75.5zM319 82q74 0 121 48.5t47 125.5q0 76 -47 125.5t-121 49.5t-121 -49.5t-47 -125.5q0 -77 47 -125.5t121 -48.5z" />
<glyph unicode="p" horiz-adv-x="487" d="M66 0v513h151q106 0 166.5 -53t60.5 -145t-60.5 -145t-166.5 -53h-49v-117h-102zM168 205h46q125 0 125 110q0 109 -125 109h-46v-219z" />
<glyph unicode="q" horiz-adv-x="638" d="M516 71l70 -80l-67 -56l-75 84q-59 -28 -125 -28q-113 0 -193 75.5t-80 189.5q0 115 80 190t193 75q114 0 193.5 -74.5t79.5 -190.5q0 -109 -76 -185zM382 89l-67 76l68 57l70 -80q34 45 34 114q0 76 -47 125.5t-121 49.5t-121 -49.5t-47 -125.5q0 -77 47 -127t121 -50 q31 0 63 10z" />
<glyph unicode="r" horiz-adv-x="495" d="M350 159l103 -159h-115l-83 130q-22 -2 -34 -2h-53v-128h-102v513h155q104 0 164.5 -50.5t60.5 -143.5q0 -115 -96 -160zM168 215h50q124 0 124 104q0 105 -124 105h-50v-209z" />
<glyph unicode="s" horiz-adv-x="442" d="M222 -9q-71 0 -124 32.5t-78 83.5l83 45q39 -74 118 -74q36 0 59 15.5t23 42.5q0 26 -18 42t-64 36l-31 14q-64 26 -97 61.5t-33 93.5q0 62 44 100t112 38q102 0 157 -80l-74 -51q-33 47 -81 47q-27 0 -43.5 -14t-16.5 -38t15 -38t48 -29l32 -14q76 -31 113.5 -68 t37.5 -99q0 -68 -49 -107t-133 -39z" />
<glyph unicode="t" d="M189 0v424h-153v89h408v-89h-153v-424h-102z" />
<glyph unicode="u" horiz-adv-x="537" d="M270 -9q-95 0 -151.5 52t-56.5 149v321h102v-318q0 -113 105 -113q104 0 104 113v318h102v-321q0 -96 -56.5 -148.5t-148.5 -52.5z" />
<glyph unicode="v" horiz-adv-x="528" d="M259 -7l-233 520h112l93 -223q9 -22 18 -50t13 -44l5 -17q14 62 35 111l95 223h105l-232 -520h-11z" />
<glyph unicode="w" horiz-adv-x="738" d="M213 -7l-188 520h110l75 -219l26 -99q13 55 32 99l99 225h10l101 -225q9 -20 17 -45t12 -39l4 -15q11 54 26 99l74 219h102l-185 -520h-11l-113 253q-18 41 -32 90q-14 -50 -32 -90l-116 -253h-11z" />
<glyph unicode="x" horiz-adv-x="537" d="M29 0l176 282l-146 231h115l62 -102q9 -16 17.5 -35.5t12.5 -31.5l3 -11q15 44 34 78l61 102h110l-145 -232l179 -281h-115l-87 137q-10 17 -20.5 38t-15.5 34l-5 13q-18 -48 -40 -85l-84 -137h-112z" />
<glyph unicode="y" horiz-adv-x="529" d="M216 0v164l-192 349h117l88 -165q11 -20 21 -46t14 -42l5 -17q17 63 39 105l87 165h110l-186 -347v-166h-103z" />
<glyph unicode="z" d="M37 0v10l244 415h-205v88h364v-10l-245 -415h234v-88h-392z" />
<glyph unicode="&#xb7;" horiz-adv-x="223" d="M112 181q-28 0 -48.5 20t-20.5 50q0 29 20.5 48.5t48.5 19.5t48 -19.5t20 -48.5q0 -30 -20 -50t-48 -20z" />
<glyph unicode="&#x2219;" horiz-adv-x="223" d="M112 181q-28 0 -48.5 20t-20.5 50q0 29 20.5 48.5t48.5 19.5t48 -19.5t20 -48.5q0 -30 -20 -50t-48 -20z" />
<glyph unicode="&#x2000;" horiz-adv-x="333" />
<glyph unicode="&#x2001;" horiz-adv-x="666" />
<glyph unicode="&#x2002;" horiz-adv-x="333" />
<glyph unicode="&#x2003;" horiz-adv-x="666" />
<glyph unicode="&#x2004;" horiz-adv-x="222" />
<glyph unicode="&#x2005;" horiz-adv-x="166" />
<glyph unicode="&#x2006;" horiz-adv-x="111" />
<glyph unicode="&#x2007;" horiz-adv-x="111" />
<glyph unicode="&#x2008;" horiz-adv-x="83" />
<glyph unicode="&#x2009;" horiz-adv-x="133" />
<glyph unicode="&#x200a;" horiz-adv-x="37" />
<glyph unicode="&#x202f;" horiz-adv-x="133" />
<glyph unicode="&#x205f;" horiz-adv-x="166" />
</font>
</defs>
</svg>
