<?xml version="1.0" standalone="no"?>
<!DOCTYPE svg PUBLIC "-//W3C//DTD SVG 1.1//EN" "http://www.w3.org/Graphics/SVG/1.1/DTD/svg11.dtd" >
<svg xmlns="http://www.w3.org/2000/svg">
<metadata>
This is a custom SVG webfont generated by Font Squirrel.
Designer    : Christian Schwartz
Foundry URL : httpwwwhouseindustriescom
</metadata>
<defs>
<font id="webfontGY6qFcrV" horiz-adv-x="551" >
<font-face units-per-em="1000" ascent="800" descent="-200" />
<missing-glyph horiz-adv-x="229" />
<glyph unicode=" "  horiz-adv-x="229" />
<glyph unicode="&#x09;" horiz-adv-x="229" />
<glyph unicode="&#xa0;" horiz-adv-x="229" />
<glyph unicode="(" horiz-adv-x="315" d="M227 -137q-181 181 -181 428t181 428l62 -51q-136 -160 -136 -377t136 -377z" />
<glyph unicode=")" horiz-adv-x="315" d="M88 -137l-62 51q136 160 136 377t-136 377l62 51q181 -183 181 -428t-181 -428z" />
<glyph unicode="," horiz-adv-x="225" d="M48 -114l38 116q-42 17 -42 62q0 28 20.5 47.5t48.5 19.5t48 -19.5t20 -48.5q0 -26 -21 -62l-59 -115h-53z" />
<glyph unicode="-" horiz-adv-x="294" d="M41 191v91h211v-91h-211z" />
<glyph unicode="." horiz-adv-x="223" d="M112 -6q-28 0 -48.5 20t-20.5 49t20.5 48.5t48.5 19.5t48 -19.5t20 -48.5t-20 -49t-48 -20z" />
<glyph unicode="0" horiz-adv-x="618" d="M308 -9q-109 0 -189.5 76.5t-80.5 189.5q0 114 80.5 189t189.5 75q111 0 191.5 -75t80.5 -189q0 -113 -81 -189.5t-191 -76.5zM308 82q71 0 118 49t47 126q0 78 -47 126t-118 48q-70 0 -116.5 -48.5t-46.5 -125.5t47 -126t116 -49z" />
<glyph unicode="1" horiz-adv-x="307" d="M131 0v428h-106v85h209v-513h-103z" />
<glyph unicode="2" horiz-adv-x="476" d="M25 0v10l201 198q54 53 75 82.5t21 63.5q0 35 -22.5 55t-58.5 20q-73 0 -104 -92l-96 27q19 74 72 115.5t127 41.5q88 0 137.5 -45.5t49.5 -115.5q0 -92 -111 -193l-47 -43q-19 -17 -55 -41q44 4 62 4h160v-87h-411z" />
<glyph unicode="3" horiz-adv-x="508" d="M245 -103q-81 0 -139 37t-87 98l88 45q39 -89 138 -89q53 0 86.5 32.5t33.5 89.5q0 58 -36 90t-95 32q-46 0 -84 -17l-8 10l133 171q6 9 15 18l13 14l5 4q-29 -4 -54 -4h-181v85h386v-9l-134 -171q-13 -17 -29 -29q78 -10 127 -61.5t49 -134.5q0 -90 -61 -150.5 t-166 -60.5z" />
<glyph unicode="4" horiz-adv-x="537" d="M431 91h72v-80h-72v-105h-100v105h-308v62l396 448h12v-430zM331 91v160l4 61q-18 -27 -34 -45l-120 -142l-39 -37q25 3 50 3h139z" />
<glyph unicode="5" horiz-adv-x="496" d="M235 -103q-79 0 -133 34t-78 86l87 45q37 -74 123 -74q53 0 85.5 32.5t32.5 84.5q0 54 -32.5 85.5t-93.5 31.5q-75 0 -136 -51l-10 4v338h333v-85h-248v-140q34 21 88 21q92 0 149.5 -58.5t57.5 -146.5q0 -89 -60 -148t-165 -59z" />
<glyph unicode="6" horiz-adv-x="518" d="M260 -9q-94 0 -158 58t-64 147q0 81 74 186l158 227h114l-130 -186q-8 -12 -22 -26t-24 -23l-9 -8q40 28 88 28q83 0 138 -54.5t55 -141.5q0 -92 -63 -149.5t-157 -57.5zM259 81q52 0 85 33.5t33 83.5q0 51 -32 84t-86 33q-53 0 -85.5 -34.5t-32.5 -82.5q0 -50 32 -83.5 t86 -33.5z" />
<glyph unicode="7" horiz-adv-x="468" d="M67 -94l237 522h-273v85h410v-10l-269 -597h-105z" />
<glyph unicode="8" horiz-adv-x="529" d="M265 -9q-100 0 -164 54t-64 139q0 60 34.5 102t92.5 61q-79 37 -79 119q0 62 50 107t130 45q81 0 130.5 -45t49.5 -107q0 -82 -79 -119q58 -19 92 -61t34 -102q0 -85 -63 -139t-164 -54zM265 385q35 0 57.5 20.5t22.5 53.5t-22.5 54t-57.5 21t-57.5 -21t-22.5 -54 t22.5 -53.5t57.5 -20.5zM265 82q55 0 88 30.5t33 78.5q0 49 -33 81t-88 32t-88 -32t-33 -81q0 -48 33 -78.5t88 -30.5z" />
<glyph unicode="9" horiz-adv-x="521" d="M142 -94l127 184q8 12 21.5 26t22.5 22l9 7q-37 -28 -85 -28q-86 0 -142.5 54.5t-56.5 142.5q0 91 63.5 149t158.5 58t159 -56.5t64 -148.5q0 -47 -18 -88.5t-57 -99.5l-151 -222h-115zM260 196q54 0 86.5 34.5t32.5 83.5q0 50 -32.5 83.5t-86.5 33.5q-53 0 -86 -33.5 t-33 -83.5q0 -51 32.5 -84.5t86.5 -33.5z" />
<glyph unicode=":" horiz-adv-x="233" d="M117 220q-28 0 -48.5 20t-20.5 50q0 29 20.5 49t48.5 20t48 -20t20 -49q0 -30 -20.5 -50t-47.5 -20zM117 -6q-28 0 -48.5 20t-20.5 49t20.5 49t48.5 20t48 -20t20 -49t-20 -49t-48 -20z" />
<glyph unicode="A" horiz-adv-x="659" d="M29 0l291 687h12l298 -687h-110l-39 96h-311l-39 -96h-102zM206 185h237l-85 212q-8 18 -16.5 43t-13.5 42l-4 16q-16 -61 -33 -101z" />
<glyph unicode="B" horiz-adv-x="609" d="M82 0v680h247q92 0 142 -48.5t50 -122.5q0 -100 -92 -131q67 -16 103 -61.5t36 -111.5q0 -91 -58.5 -148t-162.5 -57h-265zM188 415h136q46 0 69.5 23t23.5 63t-23.5 63t-71.5 23h-134v-172zM188 93h153q60 0 90.5 31.5t30.5 84.5t-32.5 84.5t-93.5 31.5h-148v-232z" />
<glyph unicode="C" horiz-adv-x="720" d="M400 -9q-147 0 -248 99t-101 250q0 150 101 249t248 99q182 0 272 -135l-81 -58q-63 98 -191 98q-105 0 -173 -72t-68 -181t68 -181.5t173 -72.5q129 0 201 107l81 -57q-95 -145 -282 -145z" />
<glyph unicode="D" horiz-adv-x="682" d="M82 0v680h187q163 0 263 -93.5t100 -246.5t-99.5 -246.5t-263.5 -93.5h-187zM188 93h74q128 0 194 67t66 180t-66 180t-194 67h-74v-494z" />
<glyph unicode="E" horiz-adv-x="587" d="M82 0v680h432v-93h-326v-264h289v-91h-289v-139h340v-93h-446z" />
<glyph unicode="F" horiz-adv-x="555" d="M82 0v680h423v-93h-317v-273h288v-94h-288v-220h-106z" />
<glyph unicode="G" horiz-adv-x="741" d="M413 -9q-159 0 -260.5 98.5t-101.5 250.5t98.5 250t250.5 98q160 0 241 -91l-71 -71q-64 67 -170 67t-173.5 -72t-67.5 -181q0 -110 70 -182t184 -72q104 0 168 44v120h-183v93h280v-265q-39 -35 -108.5 -61t-156.5 -26z" />
<glyph unicode="H" horiz-adv-x="703" d="M82 0v680h106v-366h327v366h106v-680h-106v220h-327v-220h-106z" />
<glyph unicode="I" horiz-adv-x="276" d="M86 0v680h105v-680h-105z" />
<glyph unicode="J" horiz-adv-x="489" d="M216 -9q-135 0 -193 115l86 53q41 -73 102 -73q94 0 94 106v488h106v-490q0 -98 -53 -148.5t-142 -50.5z" />
<glyph unicode="K" horiz-adv-x="627" d="M180 300q30 63 52 92l220 288h120l-241 -318l268 -362h-128l-210 284l-73 -89v-195h-106v680h106v-280q0 -44 -8 -100z" />
<glyph unicode="L" horiz-adv-x="544" d="M82 0v680h106v-587h314v-93h-420z" />
<glyph unicode="M" horiz-adv-x="833" d="M82 0v687h11l325 -380l322 380h11v-687h-101v353l4 98q-33 -51 -61 -82l-171 -206h-12l-171 206l-60 82q4 -60 4 -98v-353h-101z" />
<glyph unicode="N" horiz-adv-x="707" d="M612 -7l-375 404l-64 76q7 -56 7 -98v-375h-98v687h14l375 -403l63 -76q-7 60 -7 98v374h98v-687h-13z" />
<glyph unicode="O" horiz-adv-x="803" d="M402 -9q-148 0 -249.5 99t-101.5 250t101.5 250t249.5 99q147 0 248.5 -99t101.5 -250t-101.5 -250t-248.5 -99zM402 86q106 0 174 72.5t68 181.5t-68 181.5t-174 72.5t-174.5 -72.5t-68.5 -181.5t68.5 -181.5t174.5 -72.5z" />
<glyph unicode="P" horiz-adv-x="592" d="M82 0v680h171q139 0 215.5 -69.5t76.5 -189.5q0 -119 -77 -189t-215 -70h-65v-162h-106zM188 255h61q188 0 188 166t-188 166h-61v-332z" />
<glyph unicode="Q" horiz-adv-x="802" d="M653 93l99 -110l-70 -59l-102 113q-80 -46 -178 -46q-148 0 -249.5 99t-101.5 250t101.5 250t249.5 99q147 0 248.5 -99t101.5 -250q0 -148 -99 -247zM514 110l-94 105l71 59l96 -107q57 68 57 173q0 109 -68 181.5t-174 72.5t-174.5 -72.5t-68.5 -181.5t68.5 -181.5 t174.5 -72.5q61 0 112 24z" />
<glyph unicode="R" horiz-adv-x="605" d="M409 210l144 -210h-122l-122 179q-38 -4 -57 -4h-64v-175h-106v680h170q140 0 216.5 -68t76.5 -186q0 -156 -136 -216zM188 266h60q189 0 189 160q0 161 -189 161h-60v-321z" />
<glyph unicode="S" horiz-adv-x="533" d="M266 -9q-91 0 -152.5 39t-92.5 102l87 48q28 -46 63.5 -70.5t92.5 -24.5q52 0 85 25.5t33 67.5q0 41 -26.5 66t-87.5 52l-45 20q-81 36 -120 80.5t-39 118.5q0 76 53.5 124.5t137.5 48.5q132 0 192 -107l-83 -51q-20 35 -45 50.5t-64 15.5q-40 0 -64 -22t-24 -57 q0 -37 22 -58.5t76 -45.5l44 -20q93 -41 135.5 -88.5t42.5 -125.5q0 -87 -61.5 -137.5t-159.5 -50.5z" />
<glyph unicode="T" horiz-adv-x="573" d="M234 0v587h-202v93h509v-93h-202v-587h-105z" />
<glyph unicode="U" horiz-adv-x="674" d="M337 -9q-116 0 -187.5 64t-71.5 184v441h106v-435q0 -159 153 -159q154 0 154 159v435h105v-441q0 -120 -72 -184t-187 -64z" />
<glyph unicode="V" horiz-adv-x="659" d="M327 -7l-298 687h113l153 -365q20 -45 41 -121q19 75 40 121l151 365h103l-290 -687h-13z" />
<glyph unicode="W" horiz-adv-x="955" d="M266 -7l-237 687h111l120 -362l26 -97q17 58 33 97l156 369h13l157 -369q16 -38 32 -97q14 59 27 97l120 362h103l-235 -687h-13l-169 405l-28 83q-16 -50 -30 -83l-173 -405h-13z" />
<glyph unicode="X" horiz-adv-x="647" d="M35 0l228 372l-191 308h117l103 -166q7 -12 15.5 -29t12.5 -29l5 -11q15 42 31 69l101 166h114l-188 -308l230 -372h-117l-141 228l-34 70q-15 -42 -32 -70l-140 -228h-114z" />
<glyph unicode="Y" horiz-adv-x="668" d="M287 0v215l-258 465h117l154 -280q21 -38 41 -98q21 60 41 98l149 280h109l-247 -459v-221h-106z" />
<glyph unicode="Z" horiz-adv-x="586" d="M33 0v11l344 576h-289v93h454v-11l-342 -576h335v-93h-502z" />
<glyph unicode="a" horiz-adv-x="479" d="M318 250q0 95 -84 95q-66 0 -110 -50l-58 59q63 75 176 75q80 0 128.5 -46t48.5 -135v-248h-101l3 60q-46 -69 -132 -69q-67 0 -109 33t-42 100q0 63 45 94t120 32h115zM318 180h-108q-73 0 -73 -53q0 -55 80 -55q45 0 73 20.5t28 54.5v33z" />
<glyph unicode="b" d="M310 -9q-104 0 -147 85l3 -76h-102v722h102v-375q48 82 146 82q83 0 139 -62t56 -156t-57 -157t-140 -63zM284 80q55 0 87 36t32 95q0 57 -32.5 92.5t-86.5 35.5q-55 0 -88.5 -35.5t-33.5 -92.5q0 -59 33.5 -95t88.5 -36z" />
<glyph unicode="c" horiz-adv-x="471" d="M267 -9q-96 0 -160 62.5t-64 156.5t64 156.5t160 62.5q106 0 170 -80l-72 -58q-34 49 -98 49q-55 0 -87.5 -36.5t-32.5 -93.5t32.5 -93.5t87.5 -36.5q61 0 103 47l69 -60q-66 -76 -172 -76z" />
<glyph unicode="d" d="M241 -9q-83 0 -140 63t-57 157t57 156t138 62q98 0 146 -82v375h102v-722h-102l3 76q-43 -85 -147 -85zM267 80q55 0 88.5 36t33.5 95q0 57 -33.5 92.5t-88.5 35.5q-54 0 -86.5 -35.5t-32.5 -92.5q0 -59 32 -95t87 -36z" />
<glyph unicode="e" horiz-adv-x="527" d="M146 176q20 -100 133 -100q72 0 119 45l59 -62q-68 -68 -177 -68q-107 0 -172 61.5t-65 157.5q0 93 64.5 156t159.5 63q106 0 164 -71q53 -64 53 -164v-18h-338zM146 246h236q-16 99 -114 99q-49 0 -81 -26t-41 -73z" />
<glyph unicode="f" horiz-adv-x="348" d="M102 0v335h-69v85h69v166q0 149 135 149q76 0 119 -52l-60 -64q-21 25 -49 25q-44 0 -44 -57v-167h113v-85h-113v-335h-101z" />
<glyph unicode="g" horiz-adv-x="482" d="M301 420h157v-74h-72q24 -28 24 -68q0 -67 -47 -110t-123 -43q-52 0 -87 19q-22 -13 -22 -36q0 -33 49 -36l105 -7q179 -11 179 -135q0 -70 -58 -111t-170 -41q-105 0 -162.5 37.5t-57.5 100.5q0 71 89 100q-55 25 -55 82q0 55 57 80q-41 41 -41 100q0 66 48.5 108.5 t125.5 42.5q34 0 61 -9zM238 200q39 0 60.5 21t21.5 57q0 34 -22 54.5t-60 20.5t-59.5 -20.5t-21.5 -54.5q0 -36 21.5 -57t59.5 -21zM149 -15q-34 -20 -34 -58q0 -72 121 -72q124 0 124 69q0 26 -20 37.5t-74 15.5z" />
<glyph unicode="h" horiz-adv-x="522" d="M64 0v722h101v-376q43 83 140 83q71 0 114 -48t43 -132v-249h-101v241q0 95 -87 95q-50 0 -79.5 -28.5t-29.5 -79.5v-228h-101z" />
<glyph unicode="i" horiz-adv-x="236" d="M118 516q-28 0 -47.5 19t-19.5 48q0 28 20 47t47 19t47 -19t20 -47q0 -29 -19.5 -48t-47.5 -19zM67 0v420h102v-420h-102z" />
<glyph unicode="j" horiz-adv-x="235" d="M118 516q-28 0 -47.5 19t-19.5 48q0 28 20 47t47 19t47 -19t20 -47q0 -29 -19.5 -48t-47.5 -19zM38 -222q-65 0 -103 46l51 64q21 -19 42 -19q20 0 29.5 10t9.5 35v506h102v-503q0 -67 -34.5 -103t-96.5 -36z" />
<glyph unicode="k" horiz-adv-x="478" d="M165 124v-124h-101v722h101v-417q0 -19 -5 -74l168 189h115l-155 -175l176 -245h-119l-127 179z" />
<glyph unicode="l" horiz-adv-x="237" d="M68 0v722h101v-722h-101z" />
<glyph unicode="m" horiz-adv-x="773" d="M64 0v420h101l-2 -72q43 81 125 81q88 0 123 -80q53 80 144 80q74 0 116 -46t42 -127v-256h-101v246q0 45 -18.5 67.5t-60.5 22.5q-45 0 -69.5 -27t-24.5 -79v-230h-101v246q0 45 -18 67.5t-60 22.5q-46 0 -70.5 -27t-24.5 -79v-230h-101z" />
<glyph unicode="n" horiz-adv-x="522" d="M64 0v420h101l-2 -78q19 41 57 64t85 23q71 0 114 -48t43 -132v-249h-101v241q0 95 -87 95q-50 0 -79.5 -28.5t-29.5 -79.5v-228h-101z" />
<glyph unicode="o" horiz-adv-x="539" d="M270 -9q-96 0 -161.5 63t-65.5 156t65.5 156t161.5 63t161 -62.5t65 -156.5t-65 -156.5t-161 -62.5zM270 78q56 0 89 37t33 95t-33 94.5t-89 36.5t-89.5 -36.5t-33.5 -94.5t33.5 -95t89.5 -37z" />
<glyph unicode="p" d="M64 -212v632h102l-3 -78q45 87 149 87q82 0 138.5 -62t56.5 -156t-57 -157t-140 -63q-51 0 -88 22t-56 59v-284h-102zM284 80q55 0 87 36t32 95q0 57 -32.5 92.5t-86.5 35.5q-55 0 -88.5 -35.5t-33.5 -92.5q0 -59 33.5 -95t88.5 -36z" />
<glyph unicode="q" d="M386 -212v284q-43 -81 -145 -81q-83 0 -140 63t-57 157t57 156t138 62q104 0 150 -87l-3 78h101v-632h-101zM267 80q55 0 88.5 36t33.5 95q0 57 -33.5 92.5t-88.5 35.5q-54 0 -86.5 -35.5t-32.5 -92.5q0 -59 32 -95t87 -36z" />
<glyph unicode="r" horiz-adv-x="373" d="M64 0v420h101l-1 -79q37 87 122 87q40 0 69 -18l-34 -91q-28 14 -55 14q-101 0 -101 -129v-204h-101z" />
<glyph unicode="s" horiz-adv-x="415" d="M214 -9q-67 0 -116 25t-72 62l69 48q38 -54 113 -54q74 0 74 45q0 21 -17 31t-66 23q-12 3 -19 5q-57 16 -90.5 44.5t-33.5 84.5q0 60 42 92t108 32q88 0 146 -63l-59 -58q-36 41 -87 41q-59 0 -59 -39q0 -22 18 -32t74 -24q30 -8 50.5 -16t42.5 -22.5t33.5 -38 t11.5 -55.5q0 -59 -39.5 -95t-123.5 -36z" />
<glyph unicode="t" horiz-adv-x="358" d="M229 -10q-133 0 -133 152v193h-63v85h63v219h101v-219h112v-85h-112v-195q0 -62 42 -62q26 0 50 20l48 -68q-42 -40 -108 -40z" />
<glyph unicode="u" horiz-adv-x="520" d="M216 -9q-70 0 -113 47.5t-43 131.5v250h101v-242q0 -95 87 -95q50 0 78.5 29t28.5 80v228h101v-420h-101l2 77q-20 -41 -56.5 -63.5t-84.5 -22.5z" />
<glyph unicode="v" horiz-adv-x="475" d="M232 -9l-215 429h112l85 -186q16 -35 29 -91q12 56 27 91l85 186h103l-213 -429h-13z" />
<glyph unicode="w" horiz-adv-x="685" d="M200 -10l-183 430h112l67 -172l25 -79q13 48 29 79l90 180h10l93 -188q15 -30 30 -79q13 48 25 79l69 180h101l-184 -430h-11l-104 204q-6 12 -12 29.5t-9 29.5l-3 12q-12 -44 -26 -71l-108 -204h-11z" />
<glyph unicode="x" horiz-adv-x="492" d="M24 0l164 221l-143 199h120l57 -81q6 -9 12.5 -22t9.5 -21l4 -9q10 31 25 52l60 81h111l-140 -191l164 -229h-120l-75 105q-7 10 -15 24.5t-12 24.5l-4 9q-14 -36 -30 -58l-77 -105h-111z" />
<glyph unicode="y" horiz-adv-x="476" d="M80 -212l109 250l-172 382h112l88 -210q6 -14 12 -36t9 -36l3 -15q9 55 23 87l90 210h105l-275 -632h-104z" />
<glyph unicode="z" horiz-adv-x="429" d="M28 0v11l216 327h-192v82h347v-11l-217 -327h206v-82h-360z" />
<glyph unicode="&#xad;" horiz-adv-x="294" d="M41 191v91h211v-91h-211z" />
<glyph unicode="&#x2000;" horiz-adv-x="367" />
<glyph unicode="&#x2001;" horiz-adv-x="735" />
<glyph unicode="&#x2002;" horiz-adv-x="367" />
<glyph unicode="&#x2003;" horiz-adv-x="735" />
<glyph unicode="&#x2004;" horiz-adv-x="245" />
<glyph unicode="&#x2005;" horiz-adv-x="183" />
<glyph unicode="&#x2006;" horiz-adv-x="122" />
<glyph unicode="&#x2007;" horiz-adv-x="122" />
<glyph unicode="&#x2008;" horiz-adv-x="91" />
<glyph unicode="&#x2009;" horiz-adv-x="147" />
<glyph unicode="&#x200a;" horiz-adv-x="40" />
<glyph unicode="&#x2010;" horiz-adv-x="294" d="M41 191v91h211v-91h-211z" />
<glyph unicode="&#x2011;" horiz-adv-x="294" d="M41 191v91h211v-91h-211z" />
<glyph unicode="&#x2014;" horiz-adv-x="640" d="M33 165v90h574v-90h-574z" />
<glyph unicode="&#x202f;" horiz-adv-x="147" />
<glyph unicode="&#x205f;" horiz-adv-x="183" />
</font>
</defs>
</svg>
