<svg xmlns="http://www.w3.org/2000/svg">
<defs>
<font
       horiz-adv-x="20"
       id="Mastodoni">
      <font-face
         id="font-face9"
         unicode-range="U+0001-U+FB04"
         underline-position="-90"
         underline-thickness="44"
         bbox="-109 -246 1013 720"
         cap-height="631"
         x-height="408"
         descent="-272"
         ascent="728"
         panose-1="2 0 6 3 0 0 0 0 0 0"
         units-per-em="1000"
         font-stretch="normal"
         font-weight="500"
         font-family="Whatever" />
      <missing-glyph
         id="missing-glyph11" />
      <glyph
         id="glyph13"
         d="M475 408v-391h55v-17h-210v17h53v375h-185v-375h56v-17h-208v17h54v375h-54v16h54v18c0 191 133 259 244 259c80 0 149 -35 149 -84c0 -30 -26 -56 -53 -56s-58 22 -58 61c0 15 5 32 16 51c-22 6 -42 9 -60 9c-90 0 -140 -70 -140 -213v-45h287z"
         horiz-adv-x="567"
         unicode="fi"
         glyph-name="uniFB01" />
      <glyph
         id="glyph17"
         d="M763 408v-391h54v-17h-210v17h54v375h-186v-375h56v-17h-208v17h54v375h-189v-375h56v-17h-208v17h54v375h-54v16h54v35c0 176 105 214 176 214c70 0 137 -36 137 -95c0 -2.85797 -0.152985 -5.57147 -0.447998 -8.14288 c43.9836 94.6393 137.121 131.143 218.448 131.143c80 0 149 -35 149 -84c0 -30 -26 -56 -53 -56s-58 22 -58 61c0 15 5 32 16 51c-22 6 -42 9 -60 9c-90 0 -140 -70 -140 -213v-45h288zM188 408h189v18c0 39.6718 5.73785 74.0372 15.8246 103.589 c-7.33945 -8.54773 -18.0047 -12.5889 -29.8246 -12.5889c-58 0 -60 97 -56 109c-15 9 -28 15 -41 15c-27 0 -48.8498 -22.0494 -62 -62c-9.88708 -30.0372 -16 -75 -16 -138v-33z"
         horiz-adv-x="854"
         unicode="ffi"
         glyph-name="uniFB03" />
      <glyph
         id="glyph19"
         d="M102 467c0 184 110 213 206 213c70 0 143 -17 176 -28v-635h54v-17h-207v17h54v375h-185v-375h56v-17h-208v17h54v375h-66v16h66v59zM200 408h185v221c-1 0 -41 27 -83 27c-85 0 -102 -84 -102 -191v-57z"
         horiz-adv-x="573"
         unicode="fl"
         glyph-name="uniFB02" />
      <glyph
         id="glyph21"
         d="M26 392v16h54v35c0 176 107 214 178 214c60.1512 0 117.349 -26.5825 132.253 -71.4988c35.664 79.1582 110.379 94.4988 178.747 94.4988c71 0 149 -17 180 -28v-635h57v-17h-209v17h54v375h-183v-375h53v-17h-206v17h54v375h-191v-375h57v-17h-209v17h54v375h-54z M369 408v59c0 19.7052 1.21573 37.6327 3.50226 53.9373c-5.54099 -2.65265 -11.8381 -3.93726 -18.5023 -3.93726c-58 0 -60 97 -55 109c-17 9 -29 15 -41 15c-28 0 -50 -22 -63 -62c-11 -30 -17 -75 -17 -138v-33h191zM468 408h183v221s-46 27 -89 27 c-83 0 -94 -84 -94 -191v-57z"
         horiz-adv-x="841"
         unicode="ffl"
         glyph-name="uniFB04" />
      <glyph
         id="glyph23"
         d="M39 631h171l347 -455v438h-76v17h170v-17h-77v-626h-26l-417 540v-511h78v-17h-170v17h76v597h-76v17z"
         horiz-adv-x="677"
         unicode="N"
         glyph-name="N" />
      <glyph
         id="glyph25"
         d="M126 614h-76v17h261v-17h-76v-276h258v276h-77v17h262v-17h-76v-597h76v-17h-262v17h77v304h-258v-304h76v-17h-261v17h76v597z"
         horiz-adv-x="728"
         unicode="H"
         glyph-name="H" />
      <glyph
         id="glyph27"
         d="M126 614h-76v17h261v-17h-76v-597h76v-17h-261v17h76v597z"
         horiz-adv-x="361"
         unicode="I"
         glyph-name="I" />
      <glyph
         id="glyph29"
         d="M602 631v-188l-104 171h-114v-597h76v-17h-261v17h76v597h-113l-105 -171v188h545z"
         horiz-adv-x="659"
         unicode="T"
         glyph-name="T" />
      <glyph
         id="glyph31"
         d="M530 631v-188l-105 171h-190v-291h94l68 30l37 59v-195l-37 59l-68 31h-94v-290h201l106 171v-188h-492v17h76v597h-76v17h480z"
         horiz-adv-x="592"
         unicode="E"
         glyph-name="E" />
      <glyph
         id="glyph33"
         d="M311 17v-17h-261v17h76v597h-76v17h480v-188l-105 171h-190v-291h94l68 30l37 59v-195l-37 59l-68 31h-94v-290h76z"
         horiz-adv-x="556"
         unicode="F"
         glyph-name="F" />
      <glyph
         id="glyph35"
         d="M235 614v-597h190l117 181v-198h-492v17h76v597h-76v17h261v-17h-76z"
         horiz-adv-x="589"
         unicode="L"
         glyph-name="L" />
      <glyph
         id="glyph37"
         d="M235 611v-288c8 5 16 9 27 9c14 0 42 -11 75 -11c94 0 117 88 117 154c0 138 -98 140 -166 140c-18 0 -28 -1 -53 -4zM126 614h-76v17c109 2 183 4 247 4c160 0 284 -14 284 -159c0 -112.084 -85.3687 -148.043 -165.089 -162.006 c62.8123 -0.241028 132.198 -36.2099 140.089 -115.994c4 -55 -5 -156 41 -156c18 0 35 21 35 42h13c0 -66 -55 -92 -100 -92c-203.364 0 -21.943 291.296 -201.595 313.516l-6.40494 -0.516388c-29 -2 -68 -8 -75 -8c-11 0 -21 2 -27 9v-289h76v-17h-261v17h76v597z"
         horiz-adv-x="685"
         unicode="R"
         glyph-name="R" />
      <glyph
         id="glyph39"
         d="M235 608v-303c35 -6 62 -8 83 -8c101 0 126 101 126 164c0 94 -45 150 -156 150c-21 0 -41 -2 -53 -3zM126 614h-76v17c109 2 182 4 247 4c145 0 279 -28 279 -179c0 -71 -41 -180 -247 -180c-29 0 -62 1 -94 7v-266h76v-17h-261v17h76v597z"
         horiz-adv-x="616"
         unicode="P"
         glyph-name="P" />
      <glyph
         id="glyph41"
         d="M50 315c0 208 131 324 311 324c179 0 310 -116 310 -324c0 -185.988 -103.741 -296.745 -252.731 -318.879c-1.72879 -14.0539 -3.26895 -28.2022 -3.26895 -43.1205c0 -66 27 -130 128 -130c18 0 38 1 59 6l5 -12c-56 -14 -105 -23 -147 -23c-124 0 -155 88 -155 171 c0 9.88005 1.35577 20.438 2.39294 30.5576c-151.821 20.7567 -257.393 131.82 -257.393 319.442zM174 315c0 -238 76 -307 187 -307s186 69 186 307s-75 307 -186 307s-187 -69 -187 -307z"
         horiz-adv-x="721"
         unicode="Q"
         glyph-name="Q" />
      <glyph
         id="glyph43"
         d="M50 315c0 208 131 324 311 324c179 0 310 -116 310 -324c0 -209 -131 -323 -310 -323c-180 0 -311 114 -311 323zM174 315c0 -238 76 -307 187 -307s186 69 186 307s-75 307 -186 307s-187 -69 -187 -307z"
         horiz-adv-x="721"
         unicode="O"
         glyph-name="O" />
      <glyph
         id="glyph45"
         d="M607 260c0 -142 -54 -273 -230 -273c-107 0 -251 44 -251 263v364h-76v17h261v-17h-76v-354c0 -168 87 -248 176 -248c90 0 179 71 179 238v364h-76v17h169v-17h-76v-354z"
         horiz-adv-x="728"
         unicode="U"
         glyph-name="U" />
      <glyph
         id="glyph47"
         d="M125 125c47 0 71 -35 71 -68c0 -34 -24 -68 -71 -68c-46 0 -70 34 -70 68c0 33 24 68 70 68z"
         horiz-adv-x="281"
         unicode="."
         glyph-name="period" />
      <glyph
         id="glyph49"
         d="M388 102c0 -8 5 -55 35 -55c16 0 33 16 33 41h12c0 -46 -18 -93 -87 -93c-48.9022 0 -72.3666 22.9493 -83.6239 52.7094c-29.124 -26.4909 -73.5985 -54.7094 -131.376 -54.7094c-62 0 -117 46 -117 114c0 103.049 137.277 110.005 238 123.433v29.5668 c0 63 -1 139 -60 139c-18 0 -38 1 -53 -7c6 -12 8 -30 8 -41c0 -51 -35 -75 -65 -75c-25 0 -46 23 -46 49c0 62 83 91 163 91c56 0 111 -15 132 -42c24 -31 22 -78 22 -135v-137zM292.002 66.155c-4.86566 22.3709 -5.00223 46.5199 -5.00226 66.845v84.7619 c-66.7353 -12.4443 -136 -26.4813 -136 -111.762c0 -42 22 -83 62 -83c24.4655 0 52.4383 18.7051 79.0023 43.155z"
         horiz-adv-x="483"
         unicode="a"
         glyph-name="a" />
      <glyph
         id="glyph51"
         horiz-adv-x="408"
         unicode=" "
         glyph-name="space" />
      <glyph
         id="glyph53"
         d="M178 315c0 -164 36 -307 190 -307c90 0 187 62 209 191h20v-191l-75 45c-39 -42 -97 -61 -158 -61c-136 0 -314 90 -314 323c0 234 178 325 314 325c61 0 119 -20 158 -62l75 44v-190h-20c-22 129 -119 190 -209 190c-154 0 -190 -143 -190 -307z"
         horiz-adv-x="645"
         unicode="C"
         glyph-name="C" />
      <glyph
         id="glyph55"
         d="M94 392h-54v16h155v-93.369c45.2984 56.7494 87.7732 101.369 152 101.369c64 0 117 -53 117 -129v-270h54v-17h-210v17h54v231c0 78 -33 108 -69 108c-35.9614 0 -64.1635 -26.3818 -98 -64.6354v-274.365h54v-17h-209v17h54v375z"
         horiz-adv-x="548"
         unicode="n"
         glyph-name="n" />
      <glyph
         id="glyph57"
         d="M94 392h-54v16h155v-73.0905c40.3656 46.5689 87.474 82.0905 146 82.0905c57.6033 0 106.403 -39.2759 121.881 -93.3089c40.5948 50.3044 87.0618 90.3089 148.119 90.3089c72 0 124 -58 124 -131v-266h56v-17h-211v17h55v228c0 53 -24 110 -72 110 c-24.432 0 -56.6096 -14.4584 -95.7906 -53.3936c0.522308 -4.79343 0.790588 -9.66696 0.790588 -14.6064v-270h54v-17h-210v17h54v231c0 57 -25 109 -74 109c-26.4982 0 -58.8316 -13.129 -97 -49.5593v-290.441h54v-17h-209v17h54v375z"
         horiz-adv-x="821"
         unicode="m"
         glyph-name="m" />
      <glyph
         id="glyph59"
         d="M250 10c52 0 111 35 130 66l9 -7c-32 -46 -89 -75 -156 -75c-134 0 -193 101 -193 203c0 109 63 218 213 218c62 0 145 -21 145 -81c0 -28 -20 -54 -50 -54c-33 0 -68 30 -68 96c0 7 0 12 1 17c-12 2 -19 5 -29 5c-62 0 -103 -44 -103 -202c0 -88 20 -186 101 -186z"
         horiz-adv-x="423"
         unicode="c"
         glyph-name="c" />
      <glyph
         id="glyph61"
         d="M334 640l237 -623h76v-17h-273v17h76l-74.6696 201h-194.661l-74.6695 -201h76v-17h-172v17h77l233 623h14zM186.613 234h182.773l-91.3866 246z"
         horiz-adv-x="657"
         unicode="A"
         glyph-name="A" />
      <glyph
         id="glyph63"
         d="M322 -8l-236 622h-76v17h274v-17h-77l173 -464l171 464h-76v17h173v-17h-78l-233 -622h-15z"
         horiz-adv-x="658"
         unicode="V"
         glyph-name="V" />
      <glyph
         id="glyph65"
         d="M625 631h161v-17h-76v-597h76v-17h-261v17h76v489l-213 -514h-13l-237 518v-493h76v-17h-169v17h77v597h-82v17h180l212 -481z"
         horiz-adv-x="826"
         unicode="M"
         glyph-name="M" />
      <glyph
         id="glyph67"
         d="M515.112 480.796l-50.1119 133.204h-76v17h276v-17h-76l160 -462l168 462h-77v17h173v-17h-77l-223 -622h-14l-173.8 461.982l-180.2 -461.982h-14l-245 622h-76v17h274v-17h-77l178 -462z"
         horiz-adv-x="1023"
         unicode="W"
         glyph-name="W" />
      <glyph
         id="glyph69"
         d="M40 205c0 108 77 211 217 211c141 0 216 -104 216 -211s-75 -211 -216 -211c-140 0 -217 104 -217 211zM356 205c0 150 -46 194 -99 194c-54 0 -99 -42 -99 -194s45 -194 99 -194c53 0 99 44 99 194z"
         horiz-adv-x="513"
         unicode="o"
         glyph-name="o" />
      <glyph
         id="glyph71"
         d="M397 69c-34 -49 -93 -75 -156 -75c-121 0 -202 89 -202 211c0 107 66 211 199 211c128 0 167 -86 167 -147v-14h-255.611c-0.90567 -12.3178 -1.38852 -25.6268 -1.38852 -40c0 -153 44 -205 110 -205c51 0 111 35 129 66zM150.859 271h144.141c0 61 -5 129 -56 129 c-31.9302 0 -76.521 -24.5762 -88.1412 -129z"
         horiz-adv-x="451"
         unicode="e"
         glyph-name="e" />
      <glyph
         id="glyph73"
         d="M397 323c94 -1 186 -32 186 -158c0 -145 -121 -170 -286 -170c-64 0 -138 3 -247 5v17h76v597h-76v17c109 2 183 4 247 4c127 0 264 -4 264 -160c0 -123 -93 -147 -164 -152zM337 315c-29 -3 -68 -9 -75 -9c-11 0 -21 3 -27 8v-295c16 -1 34 -2 52 -2 c51 0 178 -9 178 153c0 59 -20 141 -128 145zM235 611v-278c8 6 16 8 27 8c14 0 42 -8 75 -8c84 0 107 77 107 149c0 132 -102 133 -156 133c-18 0 -28 -1 -53 -4z"
         horiz-adv-x="633"
         unicode="B"
         glyph-name="B" />
      <glyph
         id="glyph75"
         d="M130 43l-75 -43v197h19c22 -126 113 -183 194 -183c91 0 114 73 114 121c0 145 -314 141 -314 328c0 90 77 174 198 174c47 0 91 -16 122 -47l76 43v-192h-21c-22 123 -100 179 -166 179c-72 0 -111 -42 -111 -93c0 -144 323 -147 323 -344c0 -95 -72 -191 -211 -191 c-44 0 -111 12 -148 51z"
         horiz-adv-x="544"
         unicode="S"
         glyph-name="S" />
      <glyph
         id="glyph77"
         glyph-name="uni0000" />
      <glyph
         id="glyph79"
         glyph-name="uni0001" />
      <glyph
         id="glyph81"
         glyph-name="uni0002" />
      <glyph
         id="glyph83"
         glyph-name="uni0003" />
      <glyph
         id="glyph85"
         glyph-name="uni0004" />
      <glyph
         id="glyph87"
         glyph-name="uni0005" />
      <glyph
         id="glyph89"
         glyph-name="uni0006" />
      <glyph
         id="glyph91"
         glyph-name="uni0007" />
      <glyph
         id="glyph93"
         glyph-name="uni0008" />
      <glyph
         id="glyph95"
         unicode=" "
         glyph-name="uni0009" />
      <glyph
         id="glyph97"
         unicode=" "
         glyph-name="uni000A" />
      <glyph
         id="glyph99"
         glyph-name="uni000B" />
      <glyph
         id="glyph101"
         glyph-name="uni000C" />
      <glyph
         id="glyph103"
         unicode=" "
         glyph-name="uni000D" />
      <glyph
         id="glyph105"
         glyph-name="uni000E" />
      <glyph
         id="glyph107"
         glyph-name="uni000F" />
      <glyph
         id="glyph109"
         glyph-name="uni0010" />
      <glyph
         id="glyph111"
         glyph-name="uni0011" />
      <glyph
         id="glyph113"
         glyph-name="uni0012" />
      <glyph
         id="glyph115"
         glyph-name="uni0013" />
      <glyph
         id="glyph117"
         glyph-name="uni0014" />
      <glyph
         id="glyph119"
         glyph-name="uni0015" />
      <glyph
         id="glyph121"
         glyph-name="uni0016" />
      <glyph
         id="glyph123"
         glyph-name="uni0017" />
      <glyph
         id="glyph125"
         glyph-name="uni0018" />
      <glyph
         id="glyph127"
         glyph-name="uni0019" />
      <glyph
         id="glyph129"
         glyph-name="uni001A" />
      <glyph
         id="glyph131"
         glyph-name="uni001B" />
      <glyph
         id="glyph133"
         glyph-name="uni001C" />
      <glyph
         id="glyph135"
         glyph-name="uni001D" />
      <glyph
         id="glyph137"
         glyph-name="uni001E" />
      <glyph
         id="glyph139"
         glyph-name="uni001F" />
      <glyph
         id="glyph141"
         d="M145 122c44 0 64 -33 64 -63c0 -32 -20 -64 -64 -64c-43 0 -65 32 -65 64c0 30 22 63 65 63zM150 186c-22 237 -66 305 -66 430c0 71 33 104 66 104c31 0 64 -34 64 -104c0 -125 -45 -193 -64 -430z"
         horiz-adv-x="294"
         unicode="!"
         glyph-name="exclam" />
      <glyph
         id="glyph143"
         d="M117 486c0 73 -57 122 -57 157c0 38 32 58 64 58c30 0 60 -20 60 -58c0 -35 -55 -84 -55 -157h-12zM262 486c0 73 -56 122 -56 157c0 38 31 58 61 58c32 0 62 -20 62 -58c0 -35 -56 -84 -56 -157h-11z"
         horiz-adv-x="389"
         unicode="&quot;"
         glyph-name="quotedbl" />
      <glyph
         id="glyph145"
         d="M207 631h99l-32.6628 -185h89.2677l32.3951 185h99l-32.3951 -185h104.395v-17h-107.372l-34.8466 -199h100.219v-17h-103.195l-47.8046 -273h-99l47.8046 273h-89.6049l-48.1997 -273h-99l48.1997 273h-93.1997v17h96.2012l35.1346 199h-89.3357v17h92.3372z M235.201 230h89.5803l34.8466 199h-89.2923z"
         horiz-adv-x="606"
         unicode="#"
         glyph-name="numbersign" />
      <glyph
         id="glyph147"
         d="M130 43l-75 -43v197h19c18.5982 -106.517 86.5074 -163.723 156 -178.867v262.544c-80.1308 41.1519 -162 86.8379 -162 182.323c0 80.7172 61.9353 156.608 162 171.405v68.5953h16v-66.7838c6.52347 0.517944 13.1921 0.783813 20 0.783813 c11.5646 0 22.9476 -0.968689 34 -2.89117v68.8912h16v-72.4048c27.5207 -7.34613 52.3674 -20.9625 72 -40.5952l76 43v-192h-21c-17.7611 99.3008 -72.0214 154.933 -127 172.684v-232.668c84.3953 -44.8752 173 -94.8371 173 -198.017 c0 -85.924 -58.8998 -172.666 -173 -188.456v-98.5441h-16v96.8298c-7.13617 -0.54807 -14.4698 -0.829817 -22 -0.829817c-9.73254 0 -20.5904 0.587122 -32 1.9237v-97.9237h-16v100.253c-36.1172 6.30346 -74.9397 20.3323 -100 46.7472zM246 419.888 c16.7688 -10.3913 35.1263 -20.3302 54 -30.373v228.274c-7.75574 1.47961 -15.4563 2.21124 -23 2.21124c-11.1292 0 -21.4699 -1.00348 -31 -2.88855v-197.224zM246 272.482v-257.095c7.37582 -0.927476 14.7282 -1.38687 22 -1.38687 c11.7722 0 22.4064 1.22167 32 3.45285v225.827c-16.8586 10.047 -35.2253 19.5826 -54 29.2025zM230 430.313v182.572c-41.8082 -14.064 -64 -47.4139 -64 -85.8849c0 -41.1301 26.351 -70.7572 64 -96.6873zM316 233.249v-210.802c51.5048 20.5859 66 74.4473 66 112.553 c0 42.8285 -27.3943 72.6579 -66 98.2494z"
         horiz-adv-x="544"
         unicode="$"
         glyph-name="dollar" />
      <glyph
         id="glyph149"
         d="M92 7l498 693l43 -32l-497 -693zM40 539c0 81 58 158 162 158c106 0 162 -78 162 -158s-56 -158 -162 -158c-104 0 -162 78 -162 158zM277 539c0 113 -35 145 -75 145s-74 -31 -74 -145s34 -145 74 -145s75 32 75 145zM376 142c0 81 58 158 163 158 c106 0 162 -78 162 -158s-56 -158 -162 -158c-105 0 -163 78 -163 158zM613 142c0 112 -34 146 -74 146c-41 0 -74 -32 -74 -146s33 -146 74 -146c40 0 74 34 74 146z"
         horiz-adv-x="741"
         unicode="%"
         glyph-name="percent" />
      <glyph
         id="glyph151"
         d="M556 264c-19.9613 -45.9427 -44.2394 -90.3795 -72.739 -129.652c42.3362 -31.8319 80.4362 -51.3476 106.739 -51.3476c47 0 56 49 56 60h13c0 -43 -20 -150 -98 -150c-40.6987 -5.24521e-06 -92.5925 25.2385 -146.835 65.044 c-49.3669 -42.4907 -107.181 -69.044 -173.165 -69.044c-138 0 -196 96 -196 174c-7.62939e-06 82.6693 58.2297 123.746 120.904 163.618c-7.46875 11.6076 -14.4593 23.0956 -20.9036 34.3817c-31.9815 56.0106 -45 102 -45 140c0 102 95 141 161 141 c103 0 141 -75 141 -120c0 -75.3785 -69.7235 -109.139 -136.679 -150.172c55.7035 -85.4639 134.363 -171.168 204.095 -226.754c34.5257 46.8146 59.1987 94.6087 68.5841 118.925h-76v15h160v-15h-66zM254.56 388.805c36.7206 32.7249 63.4398 73.9387 63.4398 136.195 c0 59 -33 104 -68 104c-24 0 -58 -17 -58 -71c0 -47.7149 24.8021 -107.873 62.5602 -169.195zM180.618 304.491c-22.1208 -26.6865 -36.6176 -59.6387 -36.6176 -103.491c0 -99 69 -180 146 -180c38.8752 -7.62939e-06 76.281 19.5207 109.838 47.8521 c-78.6234 60.8977 -160.508 150.074 -219.22 235.639z"
         horiz-adv-x="704"
         unicode="&amp;"
         glyph-name="ampersand" />
      <glyph
         id="glyph153"
         d="M117 486c0 73 -57 122 -57 157c0 38 32 58 64 58c30 0 60 -20 60 -58c0 -35 -55 -84 -55 -157h-12z"
         horiz-adv-x="244"
         unicode="'"
         glyph-name="quotesingle" />
      <glyph
         id="glyph155"
         d="M60 274c0 204 91 407 280 442l3 -17c-135 -24 -200 -223 -200 -426c0 -200 65 -399 200 -423l-3 -17c-189 35 -280 238 -280 441z"
         horiz-adv-x="373"
         unicode="("
         glyph-name="parenleft" />
      <glyph
         id="glyph157"
         d="M313 274c0 -203 -92 -406 -280 -441l-3 17c134 24 200 223 200 423c0 203 -66 402 -200 426l3 17c188 -35 280 -238 280 -442z"
         horiz-adv-x="373"
         unicode=")"
         glyph-name="parenright" />
      <glyph
         id="glyph159"
         d="M255 467c-44 -27 -92 -92 -132 -115c-9 -5 -17 -7 -26 -7c-12 0 -22 6 -30 20c-5 9 -7 15 -7 22c0 12 10 23 23 31c41 23 123 33 166 59c-43 25 -125 34 -165 57c-14 9 -23 19 -23 32c0 7 3 15 7 24c8 14 17 19 29 19c8 0 16 -2 25 -7c41 -24 90 -90 133 -116 c0 51 -32 125 -32 172c0 27 11 43 40 43c27 0 37 -16 37 -41c0 -47 -33 -123 -33 -174c45 26 93 92 133 116c9 3 17 6 25 6c12 0 23 -5 31 -21c4 -8 7 -14 7 -21c0 -13 -10 -23 -23 -32c-41 -23 -123 -32 -167 -58c44 -25 125.969 -35.0538 166 -58 c13.9892 -8.0188 23 -19 23 -31c0 -7 -3 -16 -8 -24c-7 -13 -17 -19 -29 -19c-7 0 -15 2 -24 8c-41 23 -90 88 -134 115c0 -51 33 -126 33 -173c0 -25 -11 -42 -40 -42c-28 0 -37 17 -37 41c0 47 32 123 32 174z"
         horiz-adv-x="523"
         unicode="*"
         glyph-name="asterisk" />
      <glyph
         id="glyph161"
         d="M437 327v-49h-159v-174h-60v174h-158v49h158v174h60v-174h159z"
         horiz-adv-x="497"
         unicode="+"
         glyph-name="plus" />
      <glyph
         id="glyph163"
         d="M60 -141l-5 13c95 39 109 115 116 128c-11 -11 -24 -17 -36 -17c-31 0 -64 31 -64 72c0 45 36 72 75 72c38 0 77 -27 77 -85c0 -71 -67 -140 -163 -183z"
         horiz-adv-x="308"
         unicode=","
         glyph-name="comma" />
      <glyph
         id="glyph165"
         d="M437 327v-49h-377v49h377z"
         horiz-adv-x="497"
         unicode="-"
         glyph-name="hyphen" />
      <glyph
         id="glyph167"
         d="M60 -81l425 781l43 -32l-424 -781z"
         horiz-adv-x="588"
         unicode="/"
         glyph-name="slash" />
      <glyph
         id="glyph169"
         d="M276 639c162 0 242 -160 242 -319c0 -160 -80 -319 -242 -319c-160 0 -241 159 -241 319c0 159 81 319 241 319zM276 18c71 0 117 33 117 302c0 270 -46 302 -117 302c-70 0 -116 -32 -116 -302c0 -269 46 -302 116 -302z"
         horiz-adv-x="553"
         unicode="0"
         glyph-name="zero" />
      <glyph
         id="glyph171"
         d="M146 17v491c-17 -15 -54 -35 -65 -40l-6 13c69 39 129 105 158 150h18v-614h65v-17h-235v17h65z"
         horiz-adv-x="396"
         unicode="1"
         glyph-name="one" />
      <glyph
         id="glyph173"
         d="M88 58c54 58 100 76 141 76c75 0 116 -56 191 -56c49 0 82 29 82 78h13c0 -92 -36 -172 -177 -172c-126 0 -192 74 -215 74c-33 0 -57 -70 -80 -70c-6 0 -8 4 -8 11c0 11 10 31 37 56c43 187 291 197 291 410c0 111 -69 145 -110 145c-47 0 -87 -38 -94 -46 c36 -36 51 -72 51 -97c0 -38 -32 -61 -63 -61c-30 0 -58 20 -58 61c0 67 86 170 212 170c93 0 184 -58 184 -172c0 -236 -308 -174 -397 -407z"
         horiz-adv-x="548"
         unicode="2"
         glyph-name="two" />
      <glyph
         id="glyph175"
         d="M107 55c26 -21 63 -37 99 -37c94 0 133 78 133 154c0 63 -28 143 -95 143c-22 0 -47 -6 -68 -6c-22 0 -30 13 -30 20c0 16 12 21 29 21c31 0 44 -11 77 -11c60 0 88 61 88 135c0 95 -57 136 -115 136c-31 0 -62 -11 -86 -34c29 -30 41 -58 41 -80c0 -38 -28 -57 -56 -57 c-34 0 -56 26 -56 59c0 71 92 140 194 140c67 0 191 -31 191 -161c0 -79 -66 -142 -135 -149c11 -5 145 -14 145 -147c0 -119 -106 -189 -217 -189c-118 0 -211 76 -211 147c0 37 27 60 55 60c25 0 61 -18 61 -56c0 -24 -5 -51 -44 -88z"
         horiz-adv-x="498"
         unicode="3"
         glyph-name="three" />
      <glyph
         id="glyph177"
         d="M474 252v-60h-88v-175h65v-17h-240v17h63v175h-239v27l299 433h52v-400h88zM274 252v276l-194 -276h194z"
         horiz-adv-x="507"
         unicode="4"
         glyph-name="four" />
      <glyph
         id="glyph179"
         d="M88 340l25 299c59 -11 134 -12 185 -12c99 0 122 2 122 55h13c0 -92 -12 -161 -99 -161c-64 0 -184 6 -207 8l-16 -174c29 30 89 41 147 41c138 0 201 -90 201 -185c0 -106 -77 -216 -220 -216c-126 0 -204 76 -204 145c0 42 28 61 57 61c33 0 59 -23 59 -58 c0 -25 -11 -54 -44 -84c30 -28 68 -39 102 -39c83 0 132 98 132 191c0 81 -38 157 -125 157c-42 0 -87 -16 -114 -45v-9c0 -26 -15 -39 -27 -39c-10 0 -16 6 -16 20c0 12 12 31 29 45z"
         horiz-adv-x="494"
         unicode="5"
         glyph-name="five" />
      <glyph
         id="glyph181"
         d="M35 224c0 176 143 414 385 414l1 -23c-159.485 0 -236.573 -134.302 -260.528 -276.959c48.212 26.9418 92.6756 37.9594 130.528 37.9594c117 0 173 -84 173 -176c0 -99 -71 -208 -213 -208c-130 0 -216 89 -216 232zM155.795 304.322 c-2.5721 -23.3297 -3.79488 -46.6186 -3.79486 -69.3219c0 -93 16 -227 100 -227c63 0 100 90 100 174c0 80 -32 158 -101 158c-29.9146 0 -62.6256 -14.5418 -95.2051 -35.6781z"
         horiz-adv-x="499"
         unicode="6"
         glyph-name="six" />
      <glyph
         id="glyph183"
         d="M392 528h-310l-31 -64h-16l34 167h296l59 -38c8 17 22 39 32 39c2 0 3 -3 3 -5c0 -12 -19 -49 -47 -101c-132 -260 -141 -327 -148 -410c-11 -89 -13 -173 -75 -173c-26 0 -50 21 -50 57c0 78 189 377 253 528z"
         horiz-adv-x="470"
         unicode="7"
         glyph-name="seven" />
      <glyph
         id="glyph185"
         d="M246 340c60 0 88 67 88 136c0 72 -31 145 -88 145s-88 -73 -88 -145c0 -69 29 -136 88 -136zM246 8c66 0 89 84 89 160c0 77 -21 150 -89 150s-89 -73 -89 -150c0 -76 23 -160 89 -160zM246 638c133 0 194 -85 194 -164c0 -68 -44 -132 -124 -144 c94 -19 140 -88 140 -159c0 -88 -71 -179 -210 -179s-210 91 -210 179c0 71 46 140 140 159c-80 12 -124 76 -124 144c0 79 61 164 194 164z"
         horiz-adv-x="490"
         unicode="8"
         glyph-name="eight" />
      <glyph
         id="glyph187"
         d="M465 405c0 -176 -143 -413 -383 -413l-1 22c160.978 0 238.008 137.488 261.187 281.336c-36.4849 -19.4404 -86.0201 -39.3364 -135.187 -39.3364c-98 0 -172 71 -172 172c0 104 78 210 215 210c131 0 215 -89 215 -233zM346.318 326.004 c2.495 22.9155 3.68198 45.7565 3.68198 67.9958c0 93 -16 228 -100 228c-78 0 -98 -108 -98 -175c0 -68 28 -155 102 -155c26.282 0 56.7468 11.9506 92.318 34.0042z"
         horiz-adv-x="500"
         unicode="9"
         glyph-name="nine" />
      <glyph
         id="glyph189"
         d="M140 450c47 0 71 -34 71 -68c0 -35 -24 -68 -71 -68c-46 0 -70 33 -70 68c0 34 24 68 70 68zM140 125c47 0 71 -35 71 -68c0 -34 -24 -68 -71 -68c-46 0 -70 34 -70 68c0 33 24 68 70 68z"
         horiz-adv-x="281"
         unicode=":"
         glyph-name="colon" />
      <glyph
         id="glyph191"
         d="M76 -141l-6 13c95 39 110 115 117 128c-11 -11 -23 -17 -38 -17c-30 0 -62 31 -62 72c0 45 37 72 76 72c37 0 76 -27 76 -85c0 -71 -68 -140 -163 -183zM161 450c47 0 69 -34 69 -68c0 -35 -22 -68 -69 -68c-45 0 -71 33 -71 68c0 34 26 68 71 68z"
         horiz-adv-x="309"
         unicode=";"
         glyph-name="semicolon" />
      <glyph
         id="glyph193"
         d="M50 319l415 188l22 -44l-349 -161l349 -160l-22 -44l-415 188v33z"
         horiz-adv-x="567"
         unicode="&lt;"
         glyph-name="less" />
      <glyph
         id="glyph195"
         d="M462 226v-49h-397v49h397zM462 428v-49h-397v49h397z"
         horiz-adv-x="505"
         unicode="="
         glyph-name="equal" />
      <glyph
         id="glyph197"
         d="M517 319v-33l-415 -188l-22 44l349 160l-349 161l22 44z"
         horiz-adv-x="567"
         unicode="&gt;"
         glyph-name="greater" />
      <glyph
         id="glyph199"
         d="M194 195l-14 -7c-7 11 -22 41 -22 77c0 116 147 144 147 273c0 66 -49 110 -97 110c-43 0 -88 -31 -99 -50c34 -35 45 -61 45 -84c0 -35 -29 -55 -56 -55c-38 0 -53 27 -53 59c0 79 79 154 191 154c111 0 170 -74 170 -151c0 -168 -227 -158 -227 -263 c0 -17 4 -36 15 -63zM194 122c43 0 64 -33 64 -63c0 -32 -21 -64 -64 -64c-44 0 -65 32 -65 64c0 30 21 63 65 63z"
         horiz-adv-x="451"
         unicode="?"
         glyph-name="question" />
      <glyph
         id="glyph201"
         d="M50 0v17h76v597h-76v17c50 1 206 4 258 4c321 0 362 -200 362 -307c0 -140 -67 -333 -339 -333c-85 0 -226 4 -281 5zM308 615c-20 0 -45 -1 -73 -4v-592c33 -2 60 -3 84 -3c139 0 231 84 231 302c0 222 -96 297 -242 297z"
         horiz-adv-x="725"
         unicode="D"
         glyph-name="D" />
      <glyph
         id="glyph203"
         d="M178 315c0 -146 42 -307 206 -307c42 0 82 12 105 34v216h-76v16h260v-16h-76v-260l-75 43c-30 -31 -84 -49 -145 -49c-144 0 -327 96 -327 323c0 234 178 325 314 325c61 0 119 -20 158 -62l75 44v-190h-20c-22 129 -119 190 -209 190c-154 0 -190 -143 -190 -307z"
         horiz-adv-x="723"
         unicode="G"
         glyph-name="G" />
      <glyph
         id="glyph205"
         d="M200 -74c84 0 95 121 93 233v455h-76v17h262v-17h-76v-428c0 -63 15 -273 -197 -273c-82 0 -159 54 -159 110c0 31 23 53 53 53c26 0 52 -18 52 -58c0 -19 -5 -42 -17 -73c18 -10 46 -19 65 -19z"
         horiz-adv-x="506"
         unicode="J"
         glyph-name="J" />
      <glyph
         id="glyph207"
         d="M415 614v17h197v-17h-84l-214.755 -236.23l276.755 -360.77h66v-17h-263v17h67l-215.672 284.961l-9.32779 -10.2606v-274.7h76v-17h-261v17h76v597h-76v17h261v-17h-76v-296.083l266 296.083h-86z"
         horiz-adv-x="710"
         unicode="K"
         glyph-name="K" />
      <glyph
         id="glyph209"
         d="M116 614h-76v17h284v-17h-77l127.926 -227.976l146.074 227.976h-76v17h171v-17h-76l-155.74 -244.609l197.74 -352.391h76v-17h-283v17h77l-144.618 256.955l-164.382 -256.955h76v-17h-172v17h76l176.122 271.631z"
         horiz-adv-x="698"
         unicode="X"
         glyph-name="X" />
      <glyph
         id="glyph211"
         d="M116 614h-76v17h282v-17h-77l131 -275l147 275h-76v17h172v-17h-76l-152 -290v-307h77v-17h-263v17h77v264z"
         horiz-adv-x="659"
         unicode="Y"
         glyph-name="Y" />
      <glyph
         id="glyph213"
         d="M405 17l138 181l-23 -198h-470v17l354 597h-204l-137 -160l21 177h448v-17l-356 -597h229z"
         horiz-adv-x="593"
         unicode="Z"
         glyph-name="Z" />
      <glyph
         id="glyph215"
         d="M60 712h232v-17h-147v-841h147v-16h-232v874z"
         horiz-adv-x="322"
         unicode="["
         glyph-name="bracketleft" />
      <glyph
         id="glyph217"
         d="M528 -81l-44 -32l-424 781l43 32z"
         horiz-adv-x="588"
         unicode="\"
         glyph-name="backslash" />
      <glyph
         id="glyph219"
         d="M262 712v-874h-232v16h147v841h-147v17h232z"
         horiz-adv-x="322"
         unicode="]"
         glyph-name="bracketright" />
      <glyph
         id="glyph221"
         d="M164 581l101 -122l-21 -10l-86 71l-87 -71l-21 10l101 122h13z"
         horiz-adv-x="315"
         unicode="^"
         glyph-name="asciicircum" />
      <glyph
         id="glyph223"
         d="M557 45v-59h-497v59h497z"
         horiz-adv-x="617"
         unicode="_"
         glyph-name="underscore" />
      <glyph
         id="glyph225"
         d="M227 450c-62 64 -177 72 -177 112c0 31 47 77 79 77c42 0 44 -116 106 -181z"
         horiz-adv-x="295"
         unicode="`"
         glyph-name="grave" />
      <glyph
         id="glyph227"
         d="M166 314.477v-285.477c29 -17 57 -24 81 -24c87 0 135 108 135 205c0 102 -47 152 -108 152c-33.728 0 -71.5757 -15.9642 -108 -47.523zM166 337.514c57.2074 55.0587 113.768 79.4861 163 79.4861c91 0 156 -82 156 -206c0 -107 -63 -227 -226 -227 c-40 0 -77 11 -112 36l-60 -26h-22v666h-54v16h155v-338.486z"
         horiz-adv-x="534"
         unicode="b"
         glyph-name="b" />
      <glyph
         id="glyph229"
         d="M458 17h54v-17h-153v44.6448c-34.2531 -35.083 -77.7501 -51.6448 -122 -51.6448c-93 0 -186 75 -186 212c0 133 93 211 194 211c38.8476 0 78.2128 -11.3858 114 -35.2744v279.274h-53v16h152v-659zM359 66.498v294.358c-30.4236 23.3792 -59.7069 34.1438 -86 34.1438 c-68 0 -117 -74 -117 -188c0 -121 38 -192 100 -192c29.9028 0 64.7321 16.422 103 51.498z"
         horiz-adv-x="525"
         unicode="d"
         glyph-name="d" />
      <glyph
         id="glyph231"
         d="M298 408v-16h-110v-375h56v-17h-208v17h54v375h-54v16h54v59c0 172 102 215 172 215c44 0 141 -28 141 -97c0 -30 -18 -45 -40 -45c-27 0 -53 22 -53 65c0 15 2 30 8 47c-17 9 -32 14 -47 14c-66 0 -83 -93 -83 -201v-57h110z"
         horiz-adv-x="331"
         unicode="f"
         glyph-name="f" />
      <glyph
         id="glyph233"
         d="M235 152c46 0 70 61 70 123c0 61 -23 122 -70 122c-46 0 -69 -61 -69 -122s23 -123 69 -123zM147.892 -30.0169c-9.71629 -17.2877 -14.8924 -39.7657 -14.8923 -62.9831c0 -79 59 -110 120 -110c66 0 134 36 134 88c0 38 -33 72 -94 72h-49 c-35.0695 0.407784 -68.6424 3.80877 -96.1077 12.9831zM127.87 -21.6829c-28.6344 14.7383 -46.8702 38.7242 -46.8702 76.6829c0 30.1087 15.5406 70.5778 54.261 103.582c-48.5416 26.1815 -72.261 71.5114 -72.261 116.418c0 69 59 139 172 139 c42.2252 0 76.7657 -9.43723 103.572 -24.7971c48.6472 45.2586 91.3715 61.7971 118.428 61.7971c34 0 49 -21 49 -43c0 -21 -15 -45 -43 -45c-20 0 -48 12 -75 43l-32.2525 -28.2209c34.7799 -26.7345 52.2525 -64.9074 52.2525 -102.779c0 -69 -56 -139 -173 -139 c-32.0096 0 -59.4505 5.3302 -82.4067 14.4987c-21.5933 -18.978 -21.5933 -35.3244 -21.5933 -46.4987c0 -40 66 -44 116 -44h60c97 0 145 -54 145 -115c0 -112 -114 -165 -220 -165c-91 0 -177 40 -177 116c0 51.1652 44.6124 72.5889 72.8702 82.3171z"
         horiz-adv-x="523"
         unicode="g"
         glyph-name="g" />
      <glyph
         id="glyph235"
         d="M183 17h55v-17h-208v17h56v643h-56v16h153v-361.019c45.2974 56.5828 88.6505 101.019 152 101.019c64 0 116 -53 116 -129v-270h55v-17h-211v17h56v231c0 78 -34 108 -71 108c-36.183 0 -63.4634 -26.7079 -97 -65.344v-273.656z"
         horiz-adv-x="548"
         unicode="h"
         glyph-name="h" />
      <glyph
         id="glyph237"
         d="M93 392h-54v16h155v-391h54v-17h-209v17h54v375zM143 545c-43 0 -65 31 -65 63c0 31 22 62 65 62s64 -31 64 -63c0 -31 -21 -62 -64 -62z"
         horiz-adv-x="285"
         unicode="i"
         glyph-name="i" />
      <glyph
         id="glyph239"
         d="M215 408v-402c0 -165 -84 -215 -167 -215c-79 0 -157 41 -157 96c0 27 22 52 51 52c35 0 54 -26 54 -67c0 -15 -2 -32 -8 -52c16 -7 26 -13 47 -13c25 0 51 10 64 45c19 54 14 146 14 219v321h-54v16h156zM164 545c-45 0 -64 31 -64 63c0 31 19 62 64 62 c42 0 65 -31 65 -63c0 -31 -23 -62 -65 -62z"
         horiz-adv-x="276"
         unicode="j"
         glyph-name="j" />
      <glyph
         id="glyph241"
         d="M289 392v16h182v-16h-76l-133.966 -124.67l206.966 -250.33h52v-17h-243v17h62l-151.088 182.281l-9.91153 -9.22379v-173.057h54v-17h-207v17h55v643h-55v16h153v-16v-446.61l193 178.61h-82z"
         horiz-adv-x="523"
         unicode="k"
         glyph-name="k" />
      <glyph
         id="glyph243"
         d="M186 17h54v-17h-207v17h54v643h-54v16h153v-659z"
         horiz-adv-x="275"
         unicode="l"
         glyph-name="l" />
      <glyph
         id="glyph245"
         d="M80 -229v621h-55v16h153v-72.1718c51.1982 54.6902 106.511 80.1718 156 80.1718c86 0 154 -76 154 -207c0 -130 -81 -217 -203 -217c-48.8277 0 -86.1577 16.0966 -107 27.3933v-248.393h54v-17h-207v17h55zM178 312.347v-272.941 c33.811 -21.4418 63.3966 -31.4061 88 -31.4061c79 0 113 94 113 195c0 91 -28 182 -89 182c-29.0768 0 -66.4102 -21.4669 -112 -72.653z"
         horiz-adv-x="536"
         unicode="p"
         glyph-name="p" />
      <glyph
         id="glyph247"
         d="M358 59.9814c-54.2393 -49.0984 -104.75 -67.9814 -147 -67.9814c-99 0 -162 102 -162 192c0 140 103 231 215 231c39 0 78 -12 113 -46l55 39h25v-637h54v-17h-206v17h53v288.981zM358 77.9815v281.018c-16 21 -47 39 -81 39c-74 0 -125 -88 -125 -191 c0 -96 40 -180 107 -180c28.3669 0 61.4951 14.8133 99 50.9815z"
         horiz-adv-x="524"
         unicode="q"
         glyph-name="q" />
      <glyph
         id="glyph249"
         d="M87 392h-54v16h155v-94.9848c32.4421 60.8719 70.9477 107.985 129 107.985c67 0 96 -34 96 -67c0 -28 -20 -52 -53 -52c-32 0 -69 29 -72 95c-33.7553 -3.75058 -66.948 -54.7661 -100 -116.748v-263.252h56v-17h-211v17h54v375z"
         horiz-adv-x="433"
         unicode="r"
         glyph-name="r" />
      <glyph
         id="glyph251"
         d="M92 39l-47 -41v127h17c26 -80 78 -111 120 -111c37 0 66 25 66 59c0 97 -188 105 -188 229c0 61 50 122 124 122c38 0 73 -14 92 -35l51 35v-124h-25c-12 69 -65 104 -106 104c-29 0 -52 -17 -52 -51c0 -92 193 -109 193 -237c0 -65 -59 -124 -143 -124 c-62 0 -93 33 -102 47z"
         horiz-adv-x="382"
         unicode="s"
         glyph-name="s" />
      <glyph
         id="glyph253"
         d="M294 87h11c0 -66 -47 -94 -94 -94c-107 0 -106 101 -106 176v213h-65v11l65 27l84 141h17v-163h92v-16h-92v-225c0 -56 -1 -123 44 -123c22 0 44 20 44 53z"
         horiz-adv-x="340"
         unicode="t"
         glyph-name="t" />
      <glyph
         id="glyph255"
         d="M455 17h54v-17h-155v74.8182c-38.4026 -39.8154 -92.5186 -82.8182 -150 -82.8182c-64 0 -118 51 -118 127v274h-56v15h156v-250c0 -71 30 -118 72 -118c30.1729 0 64.1077 26.3339 96 58.0411v293.959h-55v16h156v-391z"
         horiz-adv-x="544"
         unicode="u"
         glyph-name="u" />
      <glyph
         id="glyph257"
         d="M227 -8l-172 400h-55v16h227v-16h-56l104 -262l108 262h-55v16h129v-16h-54l-163 -400h-13z"
         horiz-adv-x="457"
         unicode="v"
         glyph-name="v" />
      <glyph
         id="glyph259"
         d="M494 -8l-131 294l-122 -294h-13l-173 400h-55v16h227v-16h-56l105 -258l117 274h15l131 -271l89 255h-54v16h129v-16h-55l-139 -400h-15z"
         horiz-adv-x="703"
         unicode="w"
         glyph-name="w" />
      <glyph
         id="glyph261"
         d="M68 392h-49v16h220v-16h-55l85.9034 -131.485l110.097 131.485h-56v16h135v-16h-55l-123.232 -148.115l148.232 -226.885h50v-17h-221v17h54l-96.5468 148.381l-123.453 -148.381h54v-17h-128v17h48l138.43 165.323z"
         horiz-adv-x="495"
         unicode="x"
         glyph-name="x" />
      <glyph
         id="glyph263"
         d="M229 12l-169 380h-47v16h221v-16h-53l107 -257l106 257h-54v16h128v-16h-54l-140 -341c-83 -200 -165 -251 -209 -253c-47 -2 -73.9168 26.0032 -75 54c-0.92867 24.0028 24.0037 46.9001 54 48c25.0031 0.916771 45 -15 64 -65c91 72 121 177 121 177z"
         horiz-adv-x="477"
         unicode="y"
         glyph-name="y" />
      <glyph
         id="glyph265"
         d="M329 17l98 137l-11 -154h-367v17l250 375h-133l-104 -128l10 144h344v-16l-251 -375h164z"
         horiz-adv-x="474"
         unicode="z"
         glyph-name="z" />
      <glyph
         id="glyph267"
         d="M122 276c103 -22 120 -59 128 -122c12 -84 14 -274 168 -301l-3 -17c-173 32 -232 176 -232 309c0 28 2 55 7 81l-160 41v9v9l160 41c-5 26 -7 53 -7 81c0 133 59 277 232 309l3 -17c-154 -27 -156 -217 -168 -301c-8 -63 -25 -100 -128 -122z"
         horiz-adv-x="448"
         unicode="{"
         glyph-name="braceleft" />
      <glyph
         id="glyph269"
         d="M100 712h65v-874h-65v874z"
         horiz-adv-x="265"
         unicode="|"
         glyph-name="bar" />
      <glyph
         id="glyph271"
         d="M326 276c-103 22 -120 59 -128 122c-12 84 -14 274 -168 301l3 17c173 -32 232 -176 232 -309c0 -28 -2 -55 -7 -81l160 -41v-9v-9l-160 -41c5 -26 7 -53 7 -81c0 -133 -59 -277 -232 -309l-3 17c154 27 156 217 168 301c8 63 25 100 128 122z"
         horiz-adv-x="448"
         unicode="}"
         glyph-name="braceright" />
      <glyph
         id="glyph273"
         d="M336 292c-74 0 -109 69 -175 69c-38 0 -68 -30 -103 -55l-8 11c80 73 130 108 173 108c74 0 110 -69 176 -69c37 0 68 30 103 55l8 -11c-81 -73 -130 -108 -174 -108z"
         horiz-adv-x="560"
         unicode="~"
         glyph-name="asciitilde" />
      <glyph
         id="glyph275"
         glyph-name="uni007F" />
      <glyph
         id="glyph277"
         glyph-name="uni0080" />
      <glyph
         id="glyph279"
         glyph-name="uni0081" />
      <glyph
         id="glyph281"
         glyph-name="uni0082" />
      <glyph
         id="glyph283"
         glyph-name="uni0083" />
      <glyph
         id="glyph285"
         glyph-name="uni0084" />
      <glyph
         id="glyph287"
         unicode=""
         glyph-name="uni0085" />
      <glyph
         id="glyph289"
         glyph-name="uni0086" />
      <glyph
         id="glyph291"
         glyph-name="uni0087" />
      <glyph
         id="glyph293"
         glyph-name="uni0088" />
      <glyph
         id="glyph295"
         glyph-name="uni0089" />
      <glyph
         id="glyph297"
         glyph-name="uni008A" />
      <glyph
         id="glyph299"
         glyph-name="uni008B" />
      <glyph
         id="glyph301"
         glyph-name="uni008C" />
      <glyph
         id="glyph303"
         glyph-name="uni008D" />
      <glyph
         id="glyph305"
         glyph-name="uni008E" />
      <glyph
         id="glyph307"
         glyph-name="uni008F" />
      <glyph
         id="glyph309"
         glyph-name="uni0090" />
      <glyph
         id="glyph311"
         glyph-name="uni0091" />
      <glyph
         id="glyph313"
         glyph-name="uni0092" />
      <glyph
         id="glyph315"
         glyph-name="uni0093" />
      <glyph
         id="glyph317"
         glyph-name="uni0094" />
      <glyph
         id="glyph319"
         glyph-name="uni0095" />
      <glyph
         id="glyph321"
         glyph-name="uni0096" />
      <glyph
         id="glyph323"
         glyph-name="uni0097" />
      <glyph
         id="glyph325"
         glyph-name="uni0098" />
      <glyph
         id="glyph327"
         glyph-name="uni0099" />
      <glyph
         id="glyph329"
         glyph-name="uni009A" />
      <glyph
         id="glyph331"
         glyph-name="uni009B" />
      <glyph
         id="glyph333"
         glyph-name="uni009C" />
      <glyph
         id="glyph335"
         glyph-name="uni009D" />
      <glyph
         id="glyph337"
         glyph-name="uni009E" />
      <glyph
         id="glyph339"
         glyph-name="uni009F" />
      <glyph
         id="glyph341"
         unicode=" "
         glyph-name="uni00A0" />
      <glyph
         id="glyph343"
         unicode="¡"
         glyph-name="exclamdown" />
      <glyph
         id="glyph345"
         unicode="¢"
         glyph-name="cent" />
      <glyph
         id="glyph347"
         unicode="£"
         glyph-name="sterling" />
      <glyph
         id="glyph349"
         unicode="¤"
         glyph-name="currency" />
      <glyph
         id="glyph351"
         unicode="¥"
         glyph-name="yen" />
      <glyph
         id="glyph353"
         unicode="¦"
         glyph-name="brokenbar" />
      <glyph
         id="glyph355"
         unicode="§"
         glyph-name="section" />
      <glyph
         id="glyph357"
         unicode="¨"
         glyph-name="dieresis" />
      <glyph
         id="glyph359"
         unicode="©"
         glyph-name="copyright" />
      <glyph
         id="glyph361"
         unicode="ª"
         glyph-name="ordfeminine" />
      <glyph
         id="glyph363"
         unicode="«"
         glyph-name="guillemotleft" />
      <glyph
         id="glyph365"
         unicode="¬"
         glyph-name="logicalnot" />
      <glyph
         id="glyph367"
         unicode="­"
         glyph-name="uni00AD" />
      <glyph
         id="glyph369"
         unicode="®"
         glyph-name="registered" />
      <glyph
         id="glyph371"
         unicode="¯"
         glyph-name="macron" />
      <glyph
         id="glyph373"
         unicode="°"
         glyph-name="degree" />
      <glyph
         id="glyph375"
         unicode="±"
         glyph-name="plusminus" />
      <glyph
         id="glyph377"
         unicode="²"
         glyph-name="uni00B2" />
      <glyph
         id="glyph379"
         unicode="³"
         glyph-name="uni00B3" />
      <glyph
         id="glyph381"
         unicode="´"
         glyph-name="acute" />
      <glyph
         id="glyph383"
         unicode="µ"
         glyph-name="uni00B5" />
      <glyph
         id="glyph385"
         unicode="¶"
         glyph-name="paragraph" />
      <glyph
         id="glyph387"
         unicode="·"
         glyph-name="periodcentered" />
      <glyph
         id="glyph389"
         unicode="¸"
         glyph-name="cedilla" />
      <glyph
         id="glyph391"
         unicode="¹"
         glyph-name="uni00B9" />
      <glyph
         id="glyph393"
         unicode="º"
         glyph-name="ordmasculine" />
      <glyph
         id="glyph395"
         unicode="»"
         glyph-name="guillemotright" />
      <glyph
         id="glyph397"
         unicode="¼"
         glyph-name="onequarter" />
      <glyph
         id="glyph399"
         unicode="½"
         glyph-name="onehalf" />
      <glyph
         id="glyph401"
         unicode="¾"
         glyph-name="threequarters" />
      <glyph
         id="glyph403"
         unicode="¿"
         glyph-name="questiondown" />
      <glyph
         id="glyph405"
         unicode="À"
         glyph-name="Agrave" />
      <glyph
         id="glyph407"
         unicode="Á"
         glyph-name="Aacute" />
      <glyph
         id="glyph409"
         unicode="Â"
         glyph-name="Acircumflex" />
      <glyph
         id="glyph411"
         unicode="Ã"
         glyph-name="Atilde" />
      <glyph
         id="glyph413"
         unicode="Ä"
         glyph-name="Adieresis" />
      <glyph
         id="glyph415"
         unicode="Å"
         glyph-name="Aring" />
      <glyph
         id="glyph417"
         unicode="Æ"
         glyph-name="AE" />
      <glyph
         id="glyph419"
         unicode="Ç"
         glyph-name="Ccedilla" />
      <glyph
         id="glyph421"
         unicode="È"
         glyph-name="Egrave" />
      <glyph
         id="glyph423"
         unicode="É"
         glyph-name="Eacute" />
      <glyph
         id="glyph425"
         unicode="Ê"
         glyph-name="Ecircumflex" />
      <glyph
         id="glyph427"
         unicode="Ë"
         glyph-name="Edieresis" />
      <glyph
         id="glyph429"
         unicode="Ì"
         glyph-name="Igrave" />
      <glyph
         id="glyph431"
         unicode="Í"
         glyph-name="Iacute" />
      <glyph
         id="glyph433"
         unicode="Î"
         glyph-name="Icircumflex" />
      <glyph
         id="glyph435"
         unicode="Ï"
         glyph-name="Idieresis" />
      <glyph
         id="glyph437"
         unicode="Ð"
         glyph-name="Eth" />
      <glyph
         id="glyph439"
         unicode="Ñ"
         glyph-name="Ntilde" />
      <glyph
         id="glyph441"
         unicode="Ò"
         glyph-name="Ograve" />
      <glyph
         id="glyph443"
         unicode="Ó"
         glyph-name="Oacute" />
      <glyph
         id="glyph445"
         unicode="Ô"
         glyph-name="Ocircumflex" />
      <glyph
         id="glyph447"
         unicode="Õ"
         glyph-name="Otilde" />
      <glyph
         id="glyph449"
         unicode="Ö"
         glyph-name="Odieresis" />
      <glyph
         id="glyph451"
         unicode="×"
         glyph-name="multiply" />
      <glyph
         id="glyph453"
         unicode="Ø"
         glyph-name="Oslash" />
      <glyph
         id="glyph455"
         unicode="Ù"
         glyph-name="Ugrave" />
      <glyph
         id="glyph457"
         unicode="Ú"
         glyph-name="Uacute" />
      <glyph
         id="glyph459"
         unicode="Û"
         glyph-name="Ucircumflex" />
      <glyph
         id="glyph461"
         unicode="Ü"
         glyph-name="Udieresis" />
      <glyph
         id="glyph463"
         unicode="Ý"
         glyph-name="Yacute" />
      <glyph
         id="glyph465"
         unicode="Þ"
         glyph-name="Thorn" />
      <glyph
         id="glyph467"
         unicode="ß"
         glyph-name="germandbls" />
      <glyph
         id="glyph469"
         unicode="à"
         glyph-name="agrave" />
      <glyph
         id="glyph471"
         unicode="á"
         glyph-name="aacute" />
      <glyph
         id="glyph473"
         unicode="â"
         glyph-name="acircumflex" />
      <glyph
         id="glyph475"
         unicode="ã"
         glyph-name="atilde" />
      <glyph
         id="glyph477"
         unicode="ä"
         glyph-name="adieresis" />
      <glyph
         id="glyph479"
         unicode="å"
         glyph-name="aring" />
      <glyph
         id="glyph481"
         unicode="æ"
         glyph-name="ae" />
      <glyph
         id="glyph483"
         unicode="ç"
         glyph-name="ccedilla" />
      <glyph
         id="glyph485"
         unicode="è"
         glyph-name="egrave" />
      <glyph
         id="glyph487"
         unicode="é"
         glyph-name="eacute" />
      <glyph
         id="glyph489"
         unicode="ê"
         glyph-name="ecircumflex" />
      <glyph
         id="glyph491"
         unicode="ë"
         glyph-name="edieresis" />
      <glyph
         id="glyph493"
         unicode="ì"
         glyph-name="igrave" />
      <glyph
         id="glyph495"
         unicode="í"
         glyph-name="iacute" />
      <glyph
         id="glyph497"
         unicode="î"
         glyph-name="icircumflex" />
      <glyph
         id="glyph499"
         unicode="ï"
         glyph-name="idieresis" />
      <glyph
         id="glyph501"
         unicode="ð"
         glyph-name="eth" />
      <glyph
         id="glyph503"
         unicode="ñ"
         glyph-name="ntilde" />
      <glyph
         id="glyph505"
         unicode="ò"
         glyph-name="ograve" />
      <glyph
         id="glyph507"
         unicode="ó"
         glyph-name="oacute" />
      <glyph
         id="glyph509"
         unicode="ô"
         glyph-name="ocircumflex" />
      <glyph
         id="glyph511"
         unicode="õ"
         glyph-name="otilde" />
      <glyph
         id="glyph513"
         unicode="ö"
         glyph-name="odieresis" />
      <glyph
         id="glyph515"
         unicode="÷"
         glyph-name="divide" />
      <glyph
         id="glyph517"
         unicode="ø"
         glyph-name="oslash" />
      <glyph
         id="glyph519"
         unicode="ù"
         glyph-name="ugrave" />
      <glyph
         id="glyph521"
         unicode="ú"
         glyph-name="uacute" />
      <glyph
         id="glyph523"
         unicode="û"
         glyph-name="ucircumflex" />
      <glyph
         id="glyph525"
         unicode="ü"
         glyph-name="udieresis" />
      <glyph
         id="glyph527"
         unicode="ý"
         glyph-name="yacute" />
      <glyph
         id="glyph529"
         unicode="þ"
         glyph-name="thorn" />
      <glyph
         id="glyph531"
         unicode="ÿ"
         glyph-name="ydieresis" />
      <glyph
         id="glyph533"
         d="M57 434l-5 12c94 38 108 115 116 128c-11 -12 -23 -16 -37 -16c-30 0 -63 30 -63 70c0 45 36 70 75 70s76 -25 76 -82c0 -71 -67 -139 -162 -182z"
         horiz-adv-x="279"
         unicode="’"
         glyph-name="quoteright" />
      <glyph
         id="glyph535"
         d="M213 698l6 -12c-95 -40 -109 -116 -115 -128c9 10 23 16 36 16c30 0 63 -30 63 -71c0 -45 -38 -69 -75 -69c-39 0 -76 24 -76 81c0 72 66 140 161 183z"
         horiz-adv-x="279"
         unicode="‘"
         glyph-name="quoteleft" />
      <glyph
         id="glyph537"
         d="M746 285v-60h-686v60h686z"
         horiz-adv-x="804"
         unicode="—"
         glyph-name="emdash" />
      <glyph
         id="glyph539"
         d="M474 285v-60h-414v60h414z"
         horiz-adv-x="533"
         unicode="–"
         glyph-name="endash" />
      <glyph
         id="glyph541"
         d="M399 698l5 -12c-94 -40 -109 -116 -116 -128c11 10 24 16 36 16c31 0 64 -30 64 -71c0 -45 -36 -69 -76 -69c-37 0 -76 24 -76 81c0 72 68 140 163 183zM213 698l6 -12c-95 -40 -109 -116 -115 -128c9 10 23 16 36 16c30 0 63 -30 63 -71c0 -45 -38 -69 -75 -69 c-39 0 -76 24 -76 81c0 72 66 140 161 183z"
         horiz-adv-x="449"
         unicode="“"
         glyph-name="quotedblleft" />
      <glyph
         id="glyph543"
         d="M57 434l-5 12c94 38 108 115 116 128c-11 -12 -23 -16 -37 -16c-30 0 -63 30 -63 70c0 45 36 70 75 70s76 -25 76 -82c0 -71 -67 -139 -162 -182zM242 434l-6 12c96 38 110 115 118 128c-12 -12 -25 -16 -38 -16c-30 0 -63 30 -63 70c0 45 38 70 75 70 c39 0 76 -25 76 -82c0 -71 -65 -139 -162 -182z"
         horiz-adv-x="449"
         unicode="”"
         glyph-name="quotedblright" />
      <glyph
         id="glyph545"
         d="M444.168 313.932l44.8315 27.0681h17l-42 -232c-2 -10 -2 -19 -2 -26c0 -23 9 -32 22 -32c20 0 110 28 110 164c0 111 -55 237 -207 237c-176 0 -270 -152 -270 -296c0 -129 75 -250 235 -250c44 0 91 7 134 25l3 -15c-47 -16 -105 -26 -162 -26 c-194 0 -287 125 -287 257c0 155 123 320 356 320c148 0 258 -95 258 -237c0 -120 -122 -197 -198 -197c-34.0248 0 -56.2106 17.7586 -59.5585 56.3863c-35.3546 -24.99 -78.5526 -40.3862 -116.441 -40.3863c-50 0 -90 27 -90 94c0 101 100 196 186 196 c24.7927 0 48.5818 -7.52667 68.1685 -25.0681zM396.06 103.961c0.353302 11.8804 2.2424 24.651 4.94009 39.0388l32.2389 152.905c-18.079 16.8859 -36.6939 23.0954 -53.2389 23.0954c-60 0 -107 -96 -107 -169c0 -41 15 -74 52 -74 c17.9152 0 41.4792 8.21642 71.0599 27.9612z"
         horiz-adv-x="694"
         unicode="@"
         glyph-name="at" />
      <glyph
         id="glyph547"
         d="M241 436l171 -419h54v-17h-225v17h55l-41.0818 111h-127.651l-42.2669 -111h54v-17h-129v17h54l163 419h14zM133.74 145h114.886l-56.6263 153z"
         horiz-adv-x="476"
         unicode=""
         glyph-name="Asmall" />
      <glyph
         id="glyph549"
         d="M50 0v17h53v394h-53v17c63 0 130 2 195 2c110 0 195 -19 195 -103c0 -51 -41 -97 -108 -101c69 -3 128 -42 128 -104c0 -51 -42 -127 -187 -127c-61 0 -131 5 -223 5zM205 18c6 -1 29 -4 58 -4c64 0 85 57 85 107c0 37 -20 93 -77 93c-11 0 -24 -6 -39 -6 c-9 0 -21 2 -27 8v-198zM205 406v-174c10 7 18 9 26 9c14 0 26 -7 42 -7c51 0 64 52 64 87c0 50 -21 89 -86 89c-14 0 -29 -1 -46 -4z"
         horiz-adv-x="510"
         unicode=""
         glyph-name="Bsmall" />
      <glyph
         id="glyph551"
         d="M165 215c0 -140 64 -202 129 -202c57 0 113 47 128 131h20v-152l-56 44c-25 -27 -65 -40 -109 -40c-103 0 -227 72 -227 219s124 219 227 219c44 0 84 -13 109 -40l56 44v-152h-20c-15 84 -71 131 -128 131c-65 0 -129 -62 -129 -202z"
         horiz-adv-x="492"
         unicode=""
         glyph-name="Csmall" />
      <glyph
         id="glyph553"
         d="M50 0v17h53v394h-53v17c53 0 114 2 166 2c147 0 284 -27 284 -206c0 -106 -61 -229 -243 -229c-57 0 -130 5 -207 5zM205 18c16 -3 32 -4 47 -4c102 0 142 108 142 206c0 100 -41 190 -143 190c-15 0 -30 -1 -46 -4v-388z"
         horiz-adv-x="550"
         unicode=""
         glyph-name="Dsmall" />
      <glyph
         id="glyph555"
         d="M441 428v-149l-85 132h-151v-183h55l48 29l38 60v-196l-38 60l-48 30h-55v-194h162l86 131v-148h-403v17h53v394h-53v17h391z"
         horiz-adv-x="503"
         unicode=""
         glyph-name="Esmall" />
      <glyph
         id="glyph557"
         d="M346 121l-38 60l-48 30h-55v-194h54v-17h-209v17h53v394h-53v17h391v-149l-85 132h-151v-183h55l48 29l38 60v-196z"
         horiz-adv-x="471"
         unicode=""
         glyph-name="Fsmall" />
      <glyph
         id="glyph559"
         d="M165 215c0 -140 64 -202 129 -202c16 0 31 4 46 11v147h-53v17h209v-17h-54v-179l-56 44c-25 -27 -65 -40 -109 -40c-103 0 -227 72 -227 219s124 219 227 219c44 0 84 -13 109 -40l56 44v-152h-20c-15 84 -71 131 -128 131c-65 0 -129 -62 -129 -202z"
         horiz-adv-x="546"
         unicode=""
         glyph-name="Gsmall" />
      <glyph
         id="glyph561"
         d="M103 411h-53v17h209v-17h-54v-188h188v188h-53v17h209v-17h-54v-394h54v-17h-209v17h53v189h-188v-189h54v-17h-209v17h53v394z"
         horiz-adv-x="599"
         unicode=""
         glyph-name="Hsmall" />
      <glyph
         id="glyph563"
         d="M103 411h-53v17h209v-17h-54v-394h54v-17h-209v17h53v394z"
         horiz-adv-x="309"
         unicode=""
         glyph-name="Ismall" />
      <glyph
         id="glyph565"
         d="M328 411v-317c0 -135 -56 -182 -140 -182c-72 0 -138 39 -138 99c0 37 27 58 52 58c24 0 48 -18 48 -59c0 -18 -4 -46 -15 -73c14 -7 26 -10 37 -10c40 0 54 48 54 147v337h-53v17h209v-17h-54z"
         horiz-adv-x="432"
         unicode=""
         glyph-name="Jsmall" />
      <glyph
         id="glyph567"
         d="M307 411v17h197v-17h-84l-146.627 -150.765l199.627 -243.235h49v-17h-224v17h51l-141.738 175.257l-2.26192 -2.32576v-172.931h54v-17h-209v17h53v394h-53v17h209v-17h-54v-189.382l186 189.382h-84z"
         horiz-adv-x="532"
         unicode=""
         glyph-name="Ksmall" />
      <glyph
         id="glyph569"
         d="M258 428v-17h-53v-394h152l96 141v-158h-403v17h53v394h-53v17h208z"
         horiz-adv-x="503"
         unicode=""
         glyph-name="Lsmall" />
      <glyph
         id="glyph571"
         d="M110 17v394h-60v17h135l164 -312l151 312h137v-17h-54v-394h54v-17h-210v17h54v316l-163 -341h-13l-179 341v-316h60v-17h-136v17h60z"
         horiz-adv-x="687"
         unicode=""
         glyph-name="Msmall" />
      <glyph
         id="glyph573"
         d="M50 428h121l241 -277v260h-60v17h137v-17h-60v-423h-26l-277 319v-290h78v-17h-154v17h60v394h-60v17z"
         horiz-adv-x="539"
         unicode=""
         glyph-name="Nsmall" />
      <glyph
         id="glyph575"
         d="M50 215c0 155 102 221 225 221s226 -66 226 -221s-103 -221 -226 -221s-225 66 -225 221zM159 215c0 -203 78 -204 116 -204c39 0 117 1 117 204s-78 204 -117 204c-38 0 -116 -1 -116 -204z"
         horiz-adv-x="551"
         unicode=""
         glyph-name="Osmall" />
      <glyph
         id="glyph577"
         d="M50 428c63 0 120 2 170 2c145 0 231 -14 231 -125c0 -61 -35 -141 -171 -141c-24.9741 0 -47.0845 2.86365 -75 9.45784v-156.458h54v-17h-209v17h53v394h-53v17zM205 192.389c15.8522 -2.6358 29.1112 -4.38895 45 -4.38895c52 0 98 33 98 111c0 104 -46 112 -108 112 h-35v-218.611z"
         horiz-adv-x="491"
         unicode=""
         glyph-name="Psmall" />
      <glyph
         id="glyph579"
         d="M50 215c0 155 102 221 225 221s226 -66 226 -221c0 -134.935 -78.0593 -202.421 -179.418 -217.632c-0.842682 -9.45595 -1.58167 -18.9119 -1.58167 -28.3678c0 -67 30 -127 131 -127c18 0 36 3 54 7l5 -12c-48 -12 -98 -22 -143 -22c-119 0 -149 75 -149 156 c0 9.0115 0.731781 18.8351 0.731781 28.0071c-96.3466 18.0046 -168.732 85.419 -168.732 215.993zM159 215c0 -203 78 -204 116 -204c39 0 117 1 117 204s-78 204 -117 204c-38 0 -116 -1 -116 -204z"
         horiz-adv-x="560"
         unicode=""
         glyph-name="Qsmall" />
      <glyph
         id="glyph581"
         d="M205 201v-184h54v-17h-209v17h53v394h-53v17c88 0 133 1 167 1c138 0 230 -13 230 -107c0 -49 -25 -88 -68 -106c-15.1779 -6.01387 -31.4219 -10.5516 -47.4638 -13.9653c154.549 -29.2479 67.7773 -147.035 128.464 -147.035c13 0 23 12 23 29h13 c0 -67 -43 -92 -83 -92c-135.416 0 -43.0587 194.594 -122.897 203.345c-23.5232 -2.71332 -43.6307 -3.34512 -55.1035 -3.34515c-15 0 -24 3 -30 9zM338 319c0 74 -40 93 -95 93c-14 0 -27 -1 -38 -1v-195c8 6 16 8 24 8c18 0 34 -11 45 -11c46 0 64 47 64 106z"
         horiz-adv-x="536"
         unicode=""
         glyph-name="Rsmall" />
      <glyph
         id="glyph583"
         d="M102 43l-41 -45v127h16c27 -83 74 -113 114 -113c42 0 77 33 77 73c0 91 -202 99 -202 232c0 77 65 116 129 116c35 0 69 -11 93 -35l52 36v-130h-16c-13 75 -74 112 -120 112c-32 0 -57 -16 -57 -50c0 -93 210 -107 210 -244c0 -83 -73 -129 -143 -129 c-44 0 -88 12 -112 50z"
         horiz-adv-x="397"
         unicode=""
         glyph-name="Ssmall" />
      <glyph
         id="glyph585"
         d="M153 0v17h53v394h-71l-85 -132v149h414v-149l-85 132h-71v-394h53v-17h-208z"
         horiz-adv-x="514"
         unicode=""
         glyph-name="Tsmall" />
      <glyph
         id="glyph587"
         d="M454 193c0 -178 -110 -205 -174 -205c-50 0 -177 22 -177 195v228h-53v17h208v-17h-53v-218c0 -51 1 -174 117 -174c64 0 115 67 115 164v228h-53v17h123v-17h-53v-218z"
         horiz-adv-x="527"
         unicode=""
         glyph-name="Usmall" />
      <glyph
         id="glyph589"
         d="M236 -8l-171 419h-55v17h221v-17h-56l110 -281l107 281h-55v17h129v-17h-53l-163 -419h-14z"
         horiz-adv-x="476"
         unicode=""
         glyph-name="Vsmall" />
      <glyph
         id="glyph591"
         d="M240 -8l-175 419h-55v17h222v-17h-56l121 -277l88.9776 182.598l-38.9776 94.4024h-55v17h221v-17h-56l112 -281l107 281h-55v17h129v-17h-53l-163 -419h-14l-124.085 300.53l-142.915 -300.53h-13z"
         horiz-adv-x="760"
         unicode=""
         glyph-name="Wsmall" />
      <glyph
         id="glyph593"
         d="M80 412h-49v16h220v-16h-55l85.9034 -138.497l110.097 138.497h-56v16h135v-16h-55l-123.232 -156.014l148.232 -238.986h50v-17h-221v17h54l-96.5468 156.295l-123.453 -156.295h54v-17h-128v17h48l138.43 174.14z"
         horiz-adv-x="521"
         unicode=""
         glyph-name="Xsmall" />
      <glyph
         id="glyph595"
         d="M236 17v187l-137 208h-49v16h221v-16h-55l108 -167l108 167h-56v16h135v-16h-55l-118 -189v-206h54v-17h-209v17h53z"
         horiz-adv-x="551"
         unicode=""
         glyph-name="Ysmall" />
      <glyph
         id="glyph597"
         d="M316 17l108 147l-11 -164h-373v17l256 395h-129l-114 -138l10 154h350v-16l-257 -395h160z"
         horiz-adv-x="464"
         unicode=""
         glyph-name="Zsmall" />
      <glyph
         id="glyph599"
         d="M295 416c0 73 45 103 78 103c36 0 72 -35 123 -35c47 0 65 34 65 53c0 11 -5 23 -16 36c29 -15 41 -35 41 -55c0 -40 -43 -85 -104 -85c-58 0 -87 38 -118 38c-20 0 -50 -15 -50 -64c0 -30.5946 16.0167 -60.9903 39.4526 -88.9277 c-5.25076 9.86581 -7.45261 18.5084 -7.45261 25.9277c0 22 16 40 39 40c18 0 46 -17 46 -41c0 -8 -3 -15 -6 -20c-1 18 -20 34 -37 34c-18 0 -26 -18 -26 -30c0 -9.85391 4.61221 -20.1933 9.17221 -28.2674c29.6143 -29.8297 65.9811 -55.9121 97.0455 -75.0795 c-12.4978 13.6587 -22.2177 39.3499 -22.2177 64.3469c0 31 31 62 71 62c125 0 144 -239 261 -239c52 0 76 67 76 117c3 -11 5 -23 5 -37c0 -89 -81 -215 -290 -215c-113 0 -257 51 -257 167c0 63 46 92 98 92c19.2124 0 39.1875 -9.91432 57.9272 -15.7568 c-41.4897 21.3094 -76.4739 45.0523 -103.884 70.0537c-44.254 25.686 -89.4624 28.703 -112.043 28.7031c-72 0 -83 -59 -83 -86c0 -64 66.39 -75.565 93 -80c-11.685 -5.843 -21.429 -8.158 -31.319 -8.158c-23.818 0 -120.681 20.431 -120.681 102.158c0 51 42 98 116 98 c33.8073 0 79.024 -10.4173 116.434 -32.999c-2.97641 3.31653 -5.82086 6.64853 -8.53098 9.99347c1.47546 -2.37466 2.84335 -4.70837 4.09708 -6.99451c-90 72 -163 113 -209 113c-32 0 -50 -21 -50 -60c0 -13 3 -30 9 -49c-18 19 -28 51 -28 81c0 39 17 74 56 74 c59.7762 0 154.555 -70.7346 202.138 -130.005c-15.1419 24.2692 -23.1381 48.9162 -23.1381 73.0053z"
         horiz-adv-x="919"
         unicode="❧"
         glyph-name="uni2767" />
      <glyph
         id="glyph601"
         d="M450 328c15.417 70.479 61.095 101.506 104.965 101.506c48.901 0 95.558 -38.551 95.558 -103.984c0 -96.328 -107.523 -163.465 -107.523 -233.522c0 -21 16 -46 39 -46c14 0 30 9 47 33c-10 -91 -90 -115 -138 -115c-161 0 -273 169 -273 295c0 75 46 138 127 138 c32.5844 0 66.8073 -18.8427 95.995 -56.528c-1.09219 36.2012 -6.35294 76.4697 -14.3487 111.766c-49.6174 4.62289 -95.8211 21.6609 -136.416 42.0647c-26.9378 -25.3447 -57.482 -50.3026 -105.23 -50.3026c-21 0 -125 9 -125 63c0 71 97 114 119 114 c18.5199 0 64.5215 -50.6806 132.248 -91.487c28.3474 37.3099 48.6275 75.487 76.7521 75.487c26.8996 0 50.3259 -55.282 60.6248 -124.582c8.94815 -0.926056 18.0751 -1.41803 27.3752 -1.41803c133 0 187 109 187 157c-5 -7 -12 -10 -20 -10c-18 0 -29 15 -29 30 c0 19 16 32 32 32c18 0 36 -15 36 -43c0 -22 -46 -194 -229 -194l-0.883759 0.00140381c3.57031 -39.8374 2.76056 -82.194 -4.03857 -120.191zM283.608 497.686c-74.5145 38.6711 -129.122 87.3144 -149.608 87.3144c-5 0 -22 -31 -22 -62c0 -32 17 -64 82 -64 c38.4867 0 66.8296 16.6404 89.6075 38.6856zM321.747 523.373c28.5814 -16.2059 60.7439 -30.2474 96.0942 -37.9885c-11.2878 36.258 -25.6658 61.6158 -40.8412 61.6158c-21.4261 0 -38.706 -9.93176 -55.2531 -23.6273z"
         horiz-adv-x="742"
         unicode="❦"
         glyph-name="uni2766" />
      <glyph
         id="glyph15"
         d="M585 408v-16h-108v-375h54v-17h-207v17h54v375h-190v-375h56v-17h-208v17h54v375h-54v16h54v35c0 176 105 214 176 214c60.6835 0 119.112 -27.055 133.59 -72.6954c33.6866 75.6521 100.007 97.6954 149.41 97.6954c45 0 142 -28 142 -97c0 -30 -19 -45 -40 -45 c-27 0 -54 22 -54 65c0 15 3 30 10 47c-18 9 -34 14 -47 14c-68 0 -83 -93 -83 -201v-57h108zM188 408h190v59c0 19.6718 1.33423 37.6562 3.80072 54.0818c-5.61285 -2.75055 -12.0166 -4.08179 -18.8007 -4.08179c-58 0 -60 97 -56 109c-15 9 -28 15 -41 15 c-27 0 -48.8498 -22.0494 -62 -62c-9.88708 -30.0372 -16 -75 -16 -138v-33z"
         horiz-adv-x="619"
         unicode="ff"
         glyph-name="uniFB00" />
    </font>
</defs>
</svg>
